<?xml version="1.0" standalone="no"?>
<!DOCTYPE svg PUBLIC "-//W3C//DTD SVG 1.1//EN" "http://www.w3.org/Graphics/SVG/1.1/DTD/svg11.dtd" >
<svg>
<metadata>
Created by FontForge 20090914 at Fri Feb 24 15:39:31 2012
 By root
Digitized data copyright &#194;&#169; 2010, Google Corporation.
</metadata>
<defs>
<font id="DroidArabicNaskh" horiz-adv-x="0" >
  <font-face 
    font-family="Droid Arabic Naskh"
    font-weight="400"
    font-stretch="normal"
    units-per-em="2048"
    panose-1="2 11 6 6 3 8 4 2 2 4"
    ascent="1638"
    descent="-410"
    bbox="-635 -1320 3883 2370"
    underline-thickness="102"
    underline-position="-103"
    unicode-range="U+0020-U+FEFC"
  />
<missing-glyph horiz-adv-x="1229" 
d="M102 -362v1806h1024v-1806h-1024zM217 -248h795v1577h-795v-1577z" />
    <glyph glyph-name="uni06440627.isol" unicode="&#xfedf;&#xfe8e;" horiz-adv-x="1247" arabic-form="isolated" 
d="M330 -20q-6 0 -6 25q0 47 13.5 103t22.5 56h50q150 118 204.5 167t99.5 97.5t83 99.5q-235 265 -508 426l-88 -6q-66 60 -91.5 109.5t-25.5 100.5q0 35 15.5 69.5t66.5 60.5q160 -111 369 -300.5t331 -342.5q47 102 47 207q0 100 -62 501q-18 109 -18 134q0 121 162 151
l11.5 -43t74.5 -243l-65 -56q18 -324 18 -395q0 -185 -94 -360q184 -307 184 -357q0 -39 -28.5 -99t-46.5 -65q-236 -40 -719 -40zM1028 211q-57 105 -151 225q-108 -146 -277 -268q260 13 428 43z" />
    <glyph glyph-name="uni06440627.fina" unicode="&#xfee0;&#xfe8e;" horiz-adv-x="1470" arabic-form="final" 
d="M1085 950q-43 -364 -86 -520q-113 -388 -374 -420q-164 -18 -270.5 -23t-219.5 -7l-8 83q259 63 384.5 110.5t203.5 109.5q-181 398 -439 643h-88q-44 46 -69 85t-30.5 68.5t-5.5 52.5q0 95 91 134q144 -92 286.5 -285.5t223.5 -392.5q41 -106 90 -252q16 15 55 65
q95 131 148.5 388t66.5 673q71 75 162 135q15 -293 26 -1019l7 -353q111 -61 252 -61q20 0 20 -21v-143q0 -20 -20 -20q-142 0 -236 56.5t-106 153.5q-24 188 -37.5 366t-26.5 394z" />
    <glyph glyph-name="uni06440623.isol" unicode="&#xfedf;&#xfe84;" horiz-adv-x="1247" arabic-form="isolated" 
d="M330 -20q-6 0 -6 25q0 47 13.5 103t22.5 56h50q150 118 204.5 167t99.5 97.5t83 99.5q-235 265 -508 426l-88 -6q-66 60 -91.5 109.5t-25.5 100.5q0 35 15.5 69.5t66.5 60.5q160 -111 369 -300.5t331 -342.5q47 102 47 207q0 100 -62 501q-18 109 -18 134q0 121 162 151
l11.5 -43t74.5 -243l-65 -56q18 -324 18 -395q0 -185 -94 -360q184 -307 184 -357q0 -39 -28.5 -99t-46.5 -65q-236 -40 -719 -40zM1028 211q-57 105 -151 225q-108 -146 -277 -268q260 13 428 43zM356 1727l2 12q0 13 -11 26t-28 13q-46 0 -85 -33.5t-57 -80.5
q48 -61 147 -61q54 0 146 20l-6 -117q-131 -35 -204.5 -64.5t-170.5 -81.5l-6 117q28 19 59 35t60 33q-111 20 -111 121q0 55 32 110.5t86 92t106 36.5q58 0 88 -29t30 -83q0 -17 -6 -42t-14 -40z" />
    <glyph glyph-name="uni06440623.fina" unicode="&#xfee0;&#xfe84;" horiz-adv-x="1470" arabic-form="final" 
d="M1085 950q-43 -364 -86 -520q-113 -388 -374 -420q-164 -18 -270.5 -23t-219.5 -7l-8 83q259 63 384.5 110.5t203.5 109.5q-181 398 -439 643h-88q-44 46 -69 85t-30.5 68.5t-5.5 52.5q0 95 91 134q144 -92 286.5 -285.5t223.5 -392.5q41 -106 90 -252q16 15 55 65
q95 131 148.5 388t66.5 673q71 75 162 135q15 -293 26 -1019l7 -353q111 -61 252 -61q20 0 20 -21v-143q0 -20 -20 -20q-142 0 -236 56.5t-106 153.5q-24 188 -37.5 366t-26.5 394zM356 1745l2 12q0 13 -11 26t-28 13q-46 0 -85 -33.5t-57 -80.5q48 -61 147 -61q54 0 146 20
l-6 -117q-131 -35 -204.5 -64.5t-170.5 -81.5l-6 117q28 19 59 35t60 33q-111 20 -111 121q0 55 32 110.5t86 92t106 36.5q58 0 88 -29t30 -83q0 -17 -6 -42t-14 -40z" />
    <glyph glyph-name="uni06440625.isol" unicode="&#xfedf;&#xfe88;" horiz-adv-x="1247" arabic-form="isolated" 
d="M330 -20q-6 0 -6 25q0 47 13.5 103t22.5 56h50q150 118 204.5 167t99.5 97.5t83 99.5q-235 265 -508 426l-88 -6q-66 60 -91.5 109.5t-25.5 100.5q0 35 15.5 69.5t66.5 60.5q160 -111 369 -300.5t331 -342.5q47 102 47 207q0 100 -62 501q-18 109 -18 134q0 121 162 151
l11.5 -43t74.5 -243l-65 -56q18 -324 18 -395q0 -185 -94 -360q184 -307 184 -357q0 -39 -28.5 -99t-46.5 -65q-236 -40 -719 -40zM1028 211q-57 105 -151 225q-108 -146 -277 -268q260 13 428 43zM922 -278l2 12q0 13 -11 26t-28 13q-46 0 -85 -33.5t-57 -80.5
q48 -61 147 -61q54 0 146 20l-6 -117q-131 -35 -204.5 -64.5t-170.5 -81.5l-6 117q28 19 59 35t60 33q-111 20 -111 121q0 55 32 110.5t86 92t106 36.5q58 0 88 -29t30 -83q0 -17 -6 -42t-14 -40z" />
    <glyph glyph-name="uni06440625.fina" unicode="&#xfee0;&#xfe88;" horiz-adv-x="1470" arabic-form="final" 
d="M1085 950q-43 -364 -86 -520q-113 -388 -374 -420q-164 -18 -270.5 -23t-219.5 -7l-8 83q259 63 384.5 110.5t203.5 109.5q-181 398 -439 643h-88q-44 46 -69 85t-30.5 68.5t-5.5 52.5q0 95 91 134q144 -92 286.5 -285.5t223.5 -392.5q41 -106 90 -252q16 15 55 65
q95 131 148.5 388t66.5 673q71 75 162 135q15 -293 26 -1019l7 -353q111 -61 252 -61q20 0 20 -21v-143q0 -20 -20 -20q-142 0 -236 56.5t-106 153.5q-24 188 -37.5 366t-26.5 394zM979 -237l2 12q0 13 -11 26t-28 13q-46 0 -85 -33.5t-57 -80.5q48 -61 147 -61q54 0 146 20
l-6 -117q-131 -35 -204.5 -64.5t-170.5 -81.5l-6 117q28 19 59 35t60 33q-111 20 -111 121q0 55 32 110.5t86 92t106 36.5q58 0 88 -29t30 -83q0 -17 -6 -42t-14 -40z" />
    <glyph glyph-name="uni06440622.isol" unicode="&#xfedf;&#xfe82;" horiz-adv-x="1350" arabic-form="isolated" 
d="M432 -20q-6 0 -6 25q0 47 13.5 103t22.5 56h50q150 118 204.5 167t99.5 97.5t83 99.5q-235 265 -508 426l-88 -6q-66 60 -91.5 109.5t-25.5 100.5q0 35 15.5 69.5t66.5 60.5q160 -111 369 -300.5t331 -342.5q47 102 47 207q0 100 -62 501q-18 109 -18 134q0 121 162 151
l11.5 -43t74.5 -243l-65 -56q18 -324 18 -395q0 -185 -94 -360q184 -307 184 -357q0 -39 -28.5 -99t-46.5 -65q-236 -40 -719 -40zM1130 211q-57 105 -151 225q-108 -146 -277 -268q260 13 428 43zM577 1422q-141 0 -313 65q-79 -34 -145 -71l-37 63q174 145 200 145
q18 0 130 -25q111 -26 176 -26q53 0 126.5 17t116.5 39l25 -66q-54 -57 -137 -99t-142 -42z" />
    <glyph glyph-name="uni06440622.fina" unicode="&#xfee0;&#xfe82;" horiz-adv-x="1470" arabic-form="final" 
d="M1085 950q-43 -364 -86 -520q-113 -388 -374 -420q-164 -18 -270.5 -23t-219.5 -7l-8 83q259 63 384.5 110.5t203.5 109.5q-181 398 -439 643h-88q-44 46 -69 85t-30.5 68.5t-5.5 52.5q0 95 91 134q144 -92 286.5 -285.5t223.5 -392.5q41 -106 90 -252q16 15 55 65
q95 131 148.5 388t66.5 673q71 75 162 135q15 -293 26 -1019l7 -353q111 -61 252 -61q20 0 20 -21v-143q0 -20 -20 -20q-142 0 -236 56.5t-106 153.5q-24 188 -37.5 366t-26.5 394zM676 1372q-141 0 -313 65q-79 -34 -145 -71l-37 63q174 145 200 145q18 0 130 -25
q111 -26 176 -26q53 0 126.5 17t116.5 39l25 -66q-54 -57 -137 -99t-142 -42z" />
    <glyph glyph-name="uni06440671.isol" unicode="&#xfedf;&#xfb51;" horiz-adv-x="1247" 
d="M330 -20q-6 0 -6 25q0 47 13.5 103t22.5 56h50q150 118 204.5 167t99.5 97.5t83 99.5q-235 265 -508 426l-88 -6q-66 60 -91.5 109.5t-25.5 100.5q0 35 15.5 69.5t66.5 60.5q160 -111 369 -300.5t331 -342.5q47 102 47 207q0 100 -62 501q-18 109 -18 134q0 121 162 151
l11.5 -43t74.5 -243l-65 -56q18 -324 18 -395q0 -185 -94 -360q184 -307 184 -357q0 -39 -28.5 -99t-46.5 -65q-236 -40 -719 -40zM1028 211q-57 105 -151 225q-108 -146 -277 -268q260 13 428 43zM549 1366q-53 0 -102.5 16.5t-112.5 48.5q-52 -24 -93 -65l-37 30
q44 68 80.5 102.5t79.5 34.5q10 0 47 -16q48 72 99 113t114 41q48 0 82.5 -46.5t34.5 -113.5q0 -37 -22 -92q-55 -36 -87.5 -44.5t-82.5 -8.5zM604 1568q-64 0 -141 -71q42 -21 86 -21q61 0 82.5 4.5t64.5 22.5q-34 65 -92 65z" />
    <glyph glyph-name="uni06440671.fina" unicode="&#xfee0;&#xfb51;" horiz-adv-x="1470" 
d="M1085 950q-43 -364 -86 -520q-113 -388 -374 -420q-164 -18 -270.5 -23t-219.5 -7l-8 83q259 63 384.5 110.5t203.5 109.5q-181 398 -439 643h-88q-44 46 -69 85t-30.5 68.5t-5.5 52.5q0 95 91 134q144 -92 286.5 -285.5t223.5 -392.5q41 -106 90 -252q16 15 55 65
q95 131 148.5 388t66.5 673q71 75 162 135q15 -293 26 -1019l7 -353q111 -61 252 -61q20 0 20 -21v-143q0 -20 -20 -20q-142 0 -236 56.5t-106 153.5q-24 188 -37.5 366t-26.5 394zM676 1285q-53 0 -102.5 16.5t-112.5 48.5q-52 -24 -93 -65l-37 30q44 68 80.5 102.5
t79.5 34.5q10 0 47 -16q48 72 99 113t114 41q48 0 82.5 -46.5t34.5 -113.5q0 -37 -22 -92q-55 -36 -87.5 -44.5t-82.5 -8.5zM731 1487q-64 0 -141 -71q42 -21 86 -21q61 0 82.5 4.5t64.5 22.5q-34 65 -92 65z" />
    <glyph glyph-name="allah" unicode="&#x627;&#xfedf;&#xfee0;&#xfeea;" horiz-adv-x="2746" arabic-form="isolated" 
d="M672 121q-124 10 -193 26t-150 55t-123 75.5t-42 66.5q0 31 31.5 106.5t54.5 116.5q35 65 152.5 150t261.5 145l-13 101q48 46 91.5 75l91.5 60q9 -411 21 -719l5 -154q109 -61 250 -61q135 0 262 61q-74 617 -94 942q68 71 162 136q12 -283 18 -579l10 -499
q109 -61 246 -61h6q148 0 267 63q-47 607 -121 1235q71 75 162 135q7 -189 17.5 -357l20 -324.5t16.5 -306.5t9 -304q0 -84 -84 -242q-46 -83 -287 -83q-186 0 -276 86q-86 -48 -155.5 -67t-174.5 -19h-10q-144 2 -232 56t-104 154l-14 86zM2558 1255q14 -406 14 -473
q0 -403 -16 -782l-111 -20q-10 674 -54 1257l-13 178q0 75 38 120t121 62l11.5 -43t74.5 -243zM748 317l-62 390q-286 -102 -405 -252q62 -48 117 -75.5t144 -43.5t206 -19zM1532 1800q24 -46 36.5 -97t12.5 -85q0 -65 -42 -117.5t-105 -52.5q-23 0 -50.5 11t-44.5 34
q-21 -51 -58 -77.5t-77 -26.5q-54 0 -88.5 34t-34.5 99q0 21 8 57t25 68l41 -9q-10 -43 -10 -71q0 -76 65 -76q31 0 51.5 22.5t20.5 59.5l-4 94l63 41q13 -96 39 -127t74 -31q17 0 32.5 11t20.5 22q-7 34 -43 111q-5 12 -5 24q0 25 22.5 50t50.5 32zM1303 2370
q25 -142 31.5 -215t6.5 -173q0 -129 -67 -221l-14 4q0 221 -45 401q-9 33 -9 58q0 51 26.5 90.5t70.5 55.5z" />
    <glyph glyph-name="riyal" unicode="&#x631;&#xfef3;&#xfe8e;&#x644;" horiz-adv-x="2376" arabic-form="isolated" 
d="M1872 -20q-98 0 -180 64t-90 146q-31 257 -60 674q-85 -97 -213 -303q16 -120 29.5 -277.5t13.5 -246.5q0 -145 -92.5 -280t-256.5 -222.5t-341 -87.5q-207 0 -321.5 119.5t-114.5 333.5q0 78 11.5 157t51.5 234l88 -21q-43 -165 -43 -252q0 -177 88.5 -274.5
t245.5 -97.5q115 0 237.5 39t219.5 109t137 153l-68 436q-121 -174 -218.5 -247t-186.5 -73q-142 0 -217.5 107.5t-75.5 316.5q0 103 24.5 208t75.5 227l86 -25q-73 -194 -73 -328q0 -293 157 -293q56 0 111 31.5t114 92t167 206.5q-19 81 -74.5 464.5t-55.5 478.5
q0 82 38 128.5t120 63.5q23 -91 43 -151l43 -136l-57 -49q31 -254 70 -625q27 40 115.5 150t107.5 125l-35 590q65 68 162 135q12 -274 18 -588q69 54 138 79t151 25q85 0 140 -52t55 -132q0 -41 -22 -81t-46 -40q-22 51 -60.5 70.5t-97.5 19.5q-138 0 -254 -88
q9 -624 15 -768q88 -61 204 -61q123 0 207 67q-30 110 -87 265q-46 124 -46 161q0 55 44 110t114 93q11 -70 26.5 -139.5l29.5 -136t24 -129t10 -117.5q0 -78 -84 -246q-75 -66 -133 -89t-129 -23zM1890 -330q-55 -81 -143 -164q-97 74 -160 148q47 43 156 162
q40 -44 76 -78zM2253 -295q-54 -79 -144 -164q-99 75 -159 148q47 42 155 161q16 -17 148 -145z" />
    <glyph glyph-name="uni0621" unicode="&#x621;" horiz-adv-x="1264" arabic-form="isolated" 
d="M164 -8q134 55 256 94q-65 48 -102 111t-37 135q0 101 62.5 215t160 183t201.5 69q107 0 168 -56.5t61 -158.5q0 -57 -27 -99l-78 31q7 31 7 62q-62 28 -129 28q-81 0 -175.5 -58.5t-158.5 -150.5q41 -99 116.5 -154.5t200.5 -84.5q126 27 268 47t213 26q31 -31 31 -78
q0 -50 -33.5 -80.5t-91.5 -35.5q-236 -18 -374.5 -39.5t-505.5 -106.5z" />
    <glyph glyph-name="uni0627" unicode="&#x627;" horiz-adv-x="573" arabic-form="isolated" 
d="M365 1255q14 -406 14 -473q0 -380 -17 -782l-110 -20q-5 334 -22 722.5t-44 679.5l-2 33q0 75 38.5 120t121.5 62q23 -91 43 -151l43 -135z" />
    <glyph glyph-name="uni0627.fina" unicode="&#x627;" horiz-adv-x="610" arabic-form="final" 
d="M346 1597q15 -293 26 -1019l7 -353q111 -61 252 -61q20 0 20 -21v-143q0 -20 -20 -20q-142 0 -236 56.5t-106 153.5q-40 332 -82 951l-23 321q71 75 162 135z" />
    <glyph glyph-name="uni062D" unicode="&#x62d;" horiz-adv-x="1532" arabic-form="isolated" 
d="M328 -80q0 -124 64.5 -217t196.5 -147t285 -54q165 0 305 17.5t285 50.5l27 -82q-184 -101 -334 -142.5t-289 -41.5q-296 0 -461 163.5t-165 452.5q0 244 155 450.5t404 303.5l-96 32q-160 56 -242 56q-113 0 -208 -59l-56 -35q-14 14 -24.5 39.5t-10.5 54.5
q0 92 81 146.5t210 54.5q80 0 176.5 -20.5t228.5 -63.5q257 -84 420 -84h38l120 4l-68 -185q-64 -10 -141 -10q-227 -18 -449 -123t-337 -250.5t-115 -310.5z" />
    <glyph glyph-name="uni062D.init" unicode="&#x62d;" horiz-adv-x="1532" arabic-form="initial" 
d="M0 -20q-20 0 -20 20v143q0 21 20 21q356 0 557 61l110 36q100 37 155 54t112 27q-77 36 -136 80.5l-111.5 83.5t-105 65.5t-116.5 26.5q-47 0 -83.5 -8t-66.5 -21.5t-114 -64.5q-14 14 -24.5 39.5t-10.5 54.5q0 92 81 146.5t210 54.5q76 0 154 -33t182 -109
q119 -87 203.5 -133t181.5 -70t272 -22l-92 -178l-148 14q-108 -3 -155.5 -13t-109.5 -35.5t-175 -84.5q-125 -65 -225.5 -97.5t-218 -45t-326.5 -12.5z" />
    <glyph glyph-name="uni062D.medi" unicode="&#x62d;" horiz-adv-x="1604" arabic-form="medial" 
d="M0 -20q-20 0 -20 20v143q0 21 20 21q356 0 557 61q70 21 197 75q101 42 178 58q-76 35 -135 77l-111.5 78t-105 60.5t-115.5 24.5q-47 0 -83.5 -8t-66.5 -21.5t-114 -64.5q-14 14 -24.5 39.5t-10.5 54.5q0 92 81 146.5t210 54.5q77 0 157 -32t179 -99q111 -77 183.5 -116
t134 -59t128.5 -30t211 -10l-92 -179q-122 9 -205 21h-16q33 -61 76 -86t127 -35t284 -10q21 0 21 -21v-143q0 -20 -21 -20q-181 1 -292.5 28t-181 84t-122.5 174q-48 -18 -108 -51q-220 -121 -330.5 -162t-233 -57t-356.5 -16z" />
    <glyph glyph-name="uni062D.fina" unicode="&#x62d;" horiz-adv-x="1663" arabic-form="final" 
d="M1686 -20q-222 0 -320.5 15.5t-158.5 52.5t-103 107t-78 189q-206 -53 -368 -150.5t-246 -219t-84 -257.5q0 -193 143.5 -303t392.5 -110q122 0 235.5 15t272.5 52l27 -82q-158 -86 -303.5 -135t-237.5 -49q-185 0 -325 76t-215.5 216t-75.5 320q0 155 77 303.5
t217 265.5t314 179l-110 47q-113 50 -173 68t-104 18q-113 0 -208 -59l-56 -35q-14 14 -24.5 39.5t-10.5 54.5q0 92 81 146.5t210 54.5q70 0 153.5 -25.5t222.5 -89.5q251 -115 449 -115h38l120 4l-68 -184q-64 -10 -141 -10q-50 -4 -109 -14q33 -82 61.5 -116.5t70.5 -52.5
t115.5 -25t318.5 -7q20 0 20 -21v-143q0 -20 -20 -20z" />
    <glyph glyph-name="uni062F" unicode="&#x62f;" horiz-adv-x="997" arabic-form="isolated" 
d="M377 -20q-145 0 -220 39t-75 114q0 35 11.5 69.5t31.5 57.5q60 -49 137 -72.5t191 -23.5q168 0 327 49q-40 111 -151 317l-43 79q-35 60 -50.5 104t-15.5 90q0 59 33.5 100t93.5 60q36 -99 79 -191l80.5 -174t63 -153t25.5 -126q0 -77 -84 -245q-182 -94 -434 -94z" />
    <glyph glyph-name="uni0631" unicode="&#x631;" horiz-adv-x="897" arabic-form="isolated" 
d="M233 -512q-54 0 -148.5 40.5t-166.5 94.5l33 80q84 -17 129 -22t98 -5q180 0 309.5 107.5t196.5 314.5q-22 55 -43 95t-71 127q-45 75 -83 163.5t-38 149.5t37.5 98.5t103.5 69.5q16 -65 68 -200q73 -193 94.5 -280t21.5 -147q0 -188 -70.5 -347t-195 -249t-275.5 -90z
" />
    <glyph glyph-name="uni0631.fina" unicode="&#x631;" horiz-adv-x="940" arabic-form="final" 
d="M961 -20q-114 0 -197 59q-39 -247 -184.5 -399t-346.5 -152q-54 0 -148.5 40.5t-166.5 94.5l33 80q84 -17 129 -22t98 -5q180 0 309.5 107.5t196.5 314.5q-22 55 -43 95t-71 127q-45 75 -83 163.5t-38 149.5t37.5 98.5t103.5 69.5q15 -62 43.5 -136.5l57 -152.5
t52 -155.5t29.5 -145.5q84 -47 189 -47q20 0 20 -21v-143q0 -20 -20 -20z" />
    <glyph glyph-name="uni0633" unicode="&#x633;" horiz-adv-x="2441" arabic-form="isolated" 
d="M600 -696q-206 0 -321 118.5t-115 333.5q0 75 8.5 131.5t38.5 180.5l88 -21q-27 -103 -27 -172q0 -178 88.5 -275.5t245.5 -97.5q115 0 237.5 39t219.5 109t137 153q-158 346 -158 461q0 126 158 215q10 -89 51 -291q74 -24 152 -24q136 0 213 24q14 23 28 69l30 98
q34 112 57.5 159.5t46.5 59.5t50 13q33 0 56 -18q-31 -66 -56 -147l-48 -160q108 -50 206.5 -71t217.5 -21q-29 106 -90 264q-48 123 -48 162q0 55 44 110t114 93q11 -70 27 -139.5l31 -136.5t25.5 -129.5t10.5 -117.5q0 -44 -28.5 -136t-63.5 -160q-157 0 -266.5 20
t-245.5 84l-20 -39q-17 -29 -104 -47t-214 -18q-52 0 -92 8q6 -50 6 -94q0 -145 -92.5 -280t-256.5 -222.5t-341 -87.5z" />
    <glyph glyph-name="uni0633.init" unicode="&#x633;" horiz-adv-x="1585" arabic-form="initial" 
d="M545 -20q-68 0 -155 21t-140 52q-79 -73 -250 -73q-20 0 -20 20v143q0 21 20 21q67 0 111 12.5t84 42.5q31 25 50.5 49.5t78.5 124.5q21 38 74 38q37 0 59 -17q-69 -165 -101 -221q82 -29 215 -29q114 0 189 24q16 27 58 167q29 101 54.5 153.5t49.5 65.5t50 13
q33 0 56 -18q-31 -66 -56 -147l-48 -160q108 -50 206.5 -71t217.5 -21q-28 106 -90 264q-48 123 -48 162q0 55 44 110t114 93q11 -70 27 -139.5l31 -136.5t25.5 -129.5t10.5 -117.5q0 -44 -28.5 -136t-63.5 -160q-157 0 -266.5 20t-245.5 84l-20 -39q-18 -27 -97.5 -45
t-195.5 -20z" />
    <glyph glyph-name="uni0633.medi" unicode="&#x633;" horiz-adv-x="1597" arabic-form="medial" 
d="M1618 -20q-93 0 -188.5 36.5t-153.5 96.5l-35 -68q-16 -27 -81 -46t-132 -19q-63 0 -108 16.5t-86 44.5q-22 -26 -96.5 -42t-192.5 -19q-68 0 -155 21t-140 52q-79 -73 -250 -73q-20 0 -20 20v143q0 21 20 21q67 0 111 12.5t84 42.5q31 25 50.5 49.5t78.5 124.5
q21 38 74 38q37 0 59 -17q-69 -165 -101 -221q82 -29 215 -29q114 0 189 24q16 27 58 167q29 101 54.5 153.5t49.5 65.5t50 13q33 0 56 -18q-37 -83 -95 -277l-30 -93q38 -19 66 -24t63 -5q58 0 133 25q17 28 69 173q50 144 83 201q23 38 74 38q37 0 59 -17
q-11 -25 -21.5 -53.5t-99.5 -288.5q57 -38 124.5 -61t164.5 -23q20 0 20 -21v-143q0 -20 -20 -20z" />
    <glyph glyph-name="uni0633.fina" unicode="&#x633;" horiz-adv-x="2449" arabic-form="final" 
d="M2470 -20q-93 0 -188.5 36.5t-153.5 96.5l-35 -68q-16 -26 -80 -45.5t-133 -19.5q-63 0 -108 16.5t-86 44.5q-22 -26 -96.5 -42t-192.5 -19q-52 0 -113 12q6 -50 6 -98q0 -145 -92.5 -280t-256.5 -222.5t-341 -87.5q-206 0 -321 118.5t-115 333.5q0 75 8.5 131.5
t38.5 180.5l88 -21q-27 -103 -27 -172q0 -178 88.5 -275.5t245.5 -97.5q115 0 237.5 39t219.5 109t137 153q-158 346 -158 461q0 126 158 215q9 -84 53 -299q73 -16 170 -16q114 0 189 24q16 27 58 167q29 101 54.5 153.5t49.5 65.5t50 13q33 0 56 -18q-37 -83 -95 -277
l-30 -93q38 -19 66 -24t63 -5q58 0 133 25q17 28 69 173q43 123 66 169.5t44 58t47 11.5q37 0 59 -17q-11 -25 -21.5 -53.5t-99.5 -288.5q57 -38 124.5 -61t164.5 -23q20 0 20 -21v-143q0 -20 -20 -20z" />
    <glyph glyph-name="uni0635" unicode="&#x635;" horiz-adv-x="2640" arabic-form="isolated" 
d="M600 -696q-206 0 -321 118.5t-115 333.5q0 75 8.5 131.5t38.5 180.5l88 -21q-27 -103 -27 -172q0 -178 88.5 -275.5t245.5 -97.5q115 0 237.5 39t219.5 109t137 153q-158 346 -158 461q0 126 158 215q17 -126 37 -225q12 -6 68 -27q222 299 422.5 456t363.5 157
q74 0 179 -61.5t176 -144.5t71 -145q0 -148 -94 -261t-284 -180.5t-398 -67.5q-98 0 -232.5 16.5t-230.5 44.5q12 -89 12 -147q0 -145 -92.5 -280t-256.5 -222.5t-341 -87.5zM2032 639q-115 0 -276 -113.5t-341 -326.5q168 -35 350 -35q168 0 325.5 52.5t317.5 152.5
q-68 123 -172.5 196.5t-203.5 73.5z" />
    <glyph glyph-name="uni0635.init" unicode="&#x635;" horiz-adv-x="1894" arabic-form="initial" 
d="M414 464q35 0 57 -22l-72 -166q54 -26 119 -49q460 613 787 613q75 0 181 -63t175.5 -146t69.5 -142q0 -147 -93.5 -260t-283.5 -181t-400 -68q-181 0 -363 38.5t-286 98.5l-20 -26q-48 -60 -118 -85.5t-167 -25.5q-20 0 -20 20v143q0 21 20 21q84 0 136 21t89.5 62.5
t112.5 174.5q26 42 76 42zM1245 639q-114 0 -274.5 -112.5t-339.5 -327.5q159 -35 348 -35q315 0 643 205q-68 123 -172.5 196.5t-204.5 73.5z" />
    <glyph glyph-name="uni0635.medi" unicode="&#x635;" horiz-adv-x="1874" arabic-form="medial" 
d="M1894 -20q-102 0 -202 40.5t-166 110.5q-105 -70 -261.5 -110.5t-310.5 -40.5q-181 0 -363 38.5t-286 98.5l-20 -26q-48 -60 -118 -85.5t-167 -25.5q-20 0 -20 20v143q0 21 20 21q84 0 136 21t89.5 62.5t112.5 174.5q26 42 76 42q35 0 57 -22l-72 -166q54 -26 119 -49
q460 613 787 613q75 0 181 -63t175.5 -146t69.5 -142q0 -150 -95 -260q111 -65 258 -65q21 0 21 -21v-143q0 -20 -21 -20zM1245 639q-114 0 -274.5 -112.5t-339.5 -327.5q159 -35 348 -35q315 0 643 205q-68 123 -172.5 196.5t-204.5 73.5z" />
    <glyph glyph-name="uni0635.fina" unicode="&#x635;" horiz-adv-x="2648" arabic-form="final" 
d="M600 -696q-206 0 -321 118.5t-115 333.5q0 75 8.5 131.5t38.5 180.5l88 -21q-27 -103 -27 -172q0 -178 88.5 -275.5t245.5 -97.5q115 0 237.5 39t219.5 109t137 153q-158 346 -158 461q0 126 158 215q17 -126 37 -225q12 -6 68 -27q222 299 422.5 456t363.5 157
q74 0 179 -61.5t176 -144.5t71 -145q0 -153 -96 -266q103 -59 248 -59q20 0 20 -21v-143q0 -20 -20 -20q-100 0 -198.5 38.5t-166.5 106.5q-102 -66 -254.5 -105.5t-308.5 -39.5q-98 0 -232.5 16.5t-230.5 44.5q12 -89 12 -147q0 -145 -92.5 -280t-256.5 -222.5t-341 -87.5z
M2032 639q-115 0 -276 -113.5t-341 -326.5q168 -35 350 -35q168 0 325.5 52.5t317.5 152.5q-68 123 -172.5 196.5t-203.5 73.5z" />
    <glyph glyph-name="uni0637" unicode="&#x637;" horiz-adv-x="1853" arabic-form="isolated" 
d="M954 -20q-100 0 -279 8.5t-247 29.5q-52 15 -152 66.5t-174 103.5l25 84q272 -62 367 -75q60 81 137 174l-70 413q-44 236 -64.5 398.5t-20.5 222.5q0 81 37.5 128t121.5 64q23 -91 43 -151l43 -135l-64 -56q13 -187 50 -473q16 -170 22 -301q164 174 310.5 266.5
t265.5 92.5q75 0 181 -63t175.5 -146t69.5 -142q0 -147 -93.5 -260t-283.5 -181t-400 -68zM1245 639q-119 0 -284 -119t-347 -340q158 -16 365 -16q315 0 643 205q-68 123 -172.5 196.5t-204.5 73.5z" />
    <glyph glyph-name="uni0637.init" unicode="&#x637;" horiz-adv-x="1591" arabic-form="initial" 
d="M1468 518q0 -172 -159 -292t-482.5 -183t-826.5 -63q-20 0 -20 20v143q0 21 20 21h91l116 2q87 122 155 203l-71 415q-44 236 -64.5 398.5t-20.5 222.5q0 81 37.5 128t121.5 64q29 -115 63 -213l23 -73l-64 -56q9 -130 39 -385q19 -173 24 -235.5t9 -153.5
q170 187 320.5 287t262.5 100q74 0 178 -61t176 -144t72 -145zM983 668q-111 0 -282 -134t-361 -366q224 7 352 25q153 18 220 34t128 38t134.5 56t183.5 91q-72 123 -170 189.5t-205 66.5z" />
    <glyph glyph-name="uni0637.medi" unicode="&#x637;" horiz-adv-x="1516" arabic-form="medial" 
d="M1536 -20q-108 0 -211.5 43.5t-165.5 115.5q-367 -159 -1159 -159q-20 0 -20 20v143q0 21 20 21h91l116 2q87 122 155 203l-71 415q-44 236 -64.5 398.5t-20.5 222.5q0 81 37.5 128t121.5 64q29 -115 63 -213l23 -73l-64 -56q9 -130 39 -385q19 -173 24 -235.5t9 -153.5
q170 187 320.5 287t262.5 100q74 0 178 -61t176 -144t72 -145q0 -178 -170 -301q102 -53 238 -53q20 0 20 -21v-143q0 -20 -20 -20zM983 668q-111 0 -282 -134t-361 -366q224 7 352 25q153 18 220 34t128 38t134.5 56t183.5 91q-72 123 -170 189.5t-205 66.5z" />
    <glyph glyph-name="uni0637.fina" unicode="&#x637;" horiz-adv-x="1868" arabic-form="final" 
d="M954 -20q-100 0 -279 8.5t-247 29.5q-52 15 -152 66.5t-174 103.5l25 84q272 -62 367 -75q60 81 137 174l-70 413q-44 236 -64.5 398.5t-20.5 222.5q0 81 37.5 128t121.5 64q23 -91 43 -151l43 -135l-64 -56q13 -187 50 -473q16 -170 22 -301q164 174 310.5 266.5
t265.5 92.5q75 0 181 -63t175.5 -146t69.5 -142q0 -152 -95 -262q111 -63 252 -63q21 0 21 -21v-143q0 -20 -21 -20q-99 0 -199.5 40t-166.5 109q-110 -71 -262 -110t-306 -39zM1245 639q-119 0 -284 -119t-347 -340q158 -16 365 -16q315 0 643 205q-68 123 -172.5 196.5
t-204.5 73.5z" />
    <glyph glyph-name="uni0639" unicode="&#x639;" horiz-adv-x="1438" arabic-form="isolated" 
d="M897 -696q-295 0 -461 163.5t-166 452.5q0 294 222 526q-138 31 -233 131t-95 218q0 106 58 220t145.5 180.5t181.5 66.5q82 0 156 -39.5t182 -132.5l-43 -76q-96 36 -138.5 45.5t-95.5 9.5q-147 0 -309 -88q0 -148 109.5 -245.5t300.5 -112.5q181 111 397 176
q27 -34 27 -76q0 -38 -19 -66.5t-50.5 -50.5t-115.5 -57q-189 -75 -325.5 -175t-202.5 -215t-66 -239q0 -125 65 -218t197 -146.5t285 -53.5q287 0 590 68l27 -82q-184 -101 -334 -142.5t-289 -41.5z" />
    <glyph glyph-name="uni0639.init" unicode="&#x639;" horiz-adv-x="1217" arabic-form="initial" 
d="M0 -20q-20 0 -20 20v143q0 21 20 21q167 0 299 6q-65 46 -104 108.5t-39 135.5q0 106 58 220t145.5 180.5t181.5 66.5q82 0 156 -39.5t182 -132.5l-43 -76q-96 36 -138.5 45.5t-95.5 9.5q-149 0 -309 -88q0 -103 49.5 -187.5t143 -136t225.5 -61.5q169 33 411 131
q33 -30 33 -86l-2 -25q-15 -80 -100 -102q-297 -73 -440.5 -98.5t-292.5 -40t-320 -14.5z" />
    <glyph glyph-name="uni0639.medi" unicode="&#x639;" horiz-adv-x="997" arabic-form="medial" 
d="M1014 -20q-156 0 -273.5 30t-212.5 101q-132 -72 -256.5 -101.5t-269.5 -29.5q-22 0 -22 22v139q0 23 22 23q266 0 414 57q-35 41 -64.5 83.5l-59.5 83.5t-63.5 80t-74.5 73l-37 -25q-45 49 -45 108q0 83 82 138.5t185 87t204 31.5q155 0 258.5 -86t103.5 -215
q0 -99 -55 -195.5t-162 -177.5q103 -43 326 -43q24 0 24 -23v-139q0 -22 -24 -22zM551 682q-149 0 -283 -72q78 -64 158 -160q97 -119 131 -153q81 53 128.5 113.5t47.5 117.5q0 67 -50.5 110.5t-131.5 43.5z" />
    <glyph glyph-name="uni0639.fina" unicode="&#x639;" horiz-adv-x="1090" arabic-form="final" 
d="M1106 -20q-166 0 -286.5 33t-209.5 106q-262 -176 -262 -416q0 -177 142 -288t370 -111q126 0 218 12.5t249 48.5l27 -82q-162 -89 -231 -117.5t-135.5 -44.5t-133.5 -16q-166 0 -301.5 76.5t-213 214t-77.5 303.5q0 145 68.5 275.5t191.5 228.5q-38 43 -69.5 87.5
l-63 88.5t-66 85t-77.5 77l-37 -25q-45 49 -45 108q0 85 86 141t184.5 86t200.5 30q155 0 258.5 -86t103.5 -215q0 -209 -233 -367q107 -49 342 -49q24 0 24 -23v-139q0 -22 -24 -22zM643 682q-80 0 -146.5 -17.5t-136.5 -54.5q51 -41 89 -81.5t71 -80.5l64 -79t69 -76
q172 126 172 235q0 67 -50.5 110.5t-131.5 43.5z" />
    <glyph glyph-name="uni0643.init" unicode="&#x643;" horiz-adv-x="999" arabic-form="initial" 
d="M0 -20q-20 0 -20 20v143q0 21 20 21q220 0 393 32.5t318 108.5q-90 274 -506 473q-22 -8 -58 -8q-62 0 -104.5 44t-42.5 112q0 45 24.5 134t38.5 97q282 147 449.5 224.5t407.5 174.5q19 -16 28 -42t9 -49l-2 -21q-12 -85 -101 -121q-425 -174 -766 -330
q184 -45 352.5 -149.5t267.5 -231.5t99 -237q0 -194 -201 -294.5t-606 -100.5z" />
    <glyph glyph-name="uni0643.medi" unicode="&#x643;" horiz-adv-x="1106" arabic-form="medial" 
d="M379 252q-34 164 -133 295q-107 127 -175.5 247t-68.5 185q0 63 23 103.5t81 72.5q142 79 289.5 147t603.5 254q19 -16 28.5 -42t9.5 -49l-2 -21q-12 -85 -101 -121l-232 -94q-404 -164 -614 -258q190 -232 319 -365.5t263 -245t240.5 -154t215.5 -42.5q21 0 21 -21v-143
q0 -20 -21 -20q-136 0 -244 38t-219 126.5t-192 164.5q0 -101 -57 -196q-110 -65 -207.5 -99t-206.5 -34q-20 0 -20 20v143q0 21 20 21q87 0 190.5 23.5t188.5 64.5z" />
    <glyph glyph-name="uni0643" unicode="&#x643;" horiz-adv-x="1343" arabic-form="isolated" 
d="M545 -20q-168 0 -336 15t-168 32q0 44 13 105t26 81q100 -23 244.5 -36t265.5 -13q252 0 520 47q-23 115 -48.5 268.5l-75.5 437t-61 488.5q0 80 36.5 127t121.5 65l11.5 -43t74.5 -243l-63 -56q9 -130 39 -385q55 -483 55 -630q0 -66 -24.5 -118t-61.5 -102
q-262 -40 -569 -40zM651 797l2 12q0 13 -11 26t-28 13q-41 0 -81 -31.5t-60 -83.5q45 -60 148 -60q57 0 145 19l-6 -117q-122 -30 -199 -61t-176 -84l-6 117l59 34l60 33q-111 22 -111 121q0 90 73 165t150 75q64 0 91.5 -32.5t27.5 -80.5q0 -42 -20 -82z" />
    <glyph glyph-name="uni0643.fina" unicode="&#x643;" horiz-adv-x="1774" arabic-form="final" 
d="M1509 1597q15 -293 26 -1019l7 -353q111 -61 252 -61q21 0 21 -21v-143q0 -20 -21 -20q-110 0 -192.5 33.5t-118.5 90.5q-181 -64 -361 -94t-381 -30q-220 0 -340.5 38.5t-178.5 117t-58 196.5q0 88 33 182h84q-7 -35 -7 -90q0 -102 49.5 -157t157.5 -79t312 -24
q339 0 653 76q-35 293 -76 914l-22 308q73 76 161 135zM940 797l2 12q0 13 -11 26t-28 13q-41 0 -82 -32t-59 -83q45 -60 148 -60q57 0 145 19l-6 -117q-122 -30 -199 -61t-176 -84l-6 117l59 34l59 33q-110 22 -110 121q0 90 73 165t150 75q64 0 91.5 -32.5t27.5 -80.5
q0 -40 -21 -82z" />
    <glyph glyph-name="uni0644" unicode="&#x644;" horiz-adv-x="1434" arabic-form="isolated" 
d="M1200 -197q-45 305 -113 709q-42 244 -81.5 529.5t-39.5 363.5q0 80 36.5 127t121.5 65l11.5 -43t74.5 -243l-57 -49l31 -267l53 -485q53 -424 53 -616q0 -145 -92.5 -280t-256.5 -222.5t-341 -87.5q-206 0 -321 118.5t-115 333.5q0 75 8.5 131.5t38.5 180.5l88 -21
q-27 -103 -27 -172q0 -178 88.5 -275.5t245.5 -97.5q115 0 237.5 39t219.5 109t137 153z" />
    <glyph glyph-name="uni0644.init" unicode="&#x644;" horiz-adv-x="512" arabic-form="initial" 
d="M-2 -20q-21 0 -21 20v143q0 21 21 21q149 0 266 63q-50 652 -121 1235q71 75 162 135l19 -357q26 -432 34.5 -607t10.5 -328q0 -84 -84 -242q-46 -83 -287 -83z" />
    <glyph glyph-name="uni0644.medi" unicode="&#x644;" horiz-adv-x="590" arabic-form="medial" 
d="M0 -20q-20 0 -20 20v143q0 21 20 21q135 0 262 61q-38 328 -76 925l-22 312q71 75 162 135q14 -314 25 -1019l7 -353q111 -61 252 -61q21 0 21 -21v-143q0 -20 -21 -20q-186 0 -276 86q-90 -50 -159 -68t-175 -18z" />
    <glyph glyph-name="uni0644.fina" unicode="&#x644;" horiz-adv-x="1425" arabic-form="final" 
d="M1446 -20q-86 0 -160 36l4 -122q0 -145 -92.5 -280t-256.5 -222.5t-341 -87.5q-206 0 -321 118.5t-115 333.5q0 75 8.5 131.5t38.5 180.5l88 -21q-27 -103 -27 -172q0 -178 88.5 -275.5t245.5 -97.5q115 0 237.5 39t219.5 109t137 153q-45 305 -113 709
q-42 244 -81.5 529.5t-39.5 363.5q0 80 36.5 127t121.5 65l11.5 -43t74.5 -243l-57 -49q12 -91 117 -1057q75 -41 176 -41q20 0 20 -21v-143q0 -20 -20 -20z" />
    <glyph glyph-name="uni0645" unicode="&#x645;" horiz-adv-x="1178" arabic-form="isolated" 
d="M371 -696q-81 -81 -162 -135q0 196 -22 486q-23 289 -23 337q0 46 23.5 103.5t52.5 119.5q275 82 592 82h30q-30 39 -65 94.5t-74.5 106.5t-82.5 87t-89 36q-57 0 -109.5 -42t-113.5 -137l-78 39q65 163 154.5 251.5t191.5 88.5q53 0 104 -36.5t116 -121.5
q103 -136 156 -194.5t113 -103.5l-92 -246q-467 0 -737 -92q10 -80 56 -327q44 -238 59 -396z" />
    <glyph glyph-name="uni0645.init" unicode="&#x645;" horiz-adv-x="1098" arabic-form="initial" 
d="M862 -20q-142 0 -306.5 39.5t-274.5 103.5q-59 -79 -126 -111t-155 -32q-20 0 -20 20v143q0 21 20 21q91 0 152.5 42.5t111.5 135.5l47 96q89 192 177.5 276.5t199.5 84.5q68 0 137 -81t114.5 -216.5t45.5 -270.5q0 -153 -123 -251zM651 586q-68 0 -128 -62.5
t-146 -238.5q173 -96 432 -121q-4 96 -28 193.5t-60.5 163t-69.5 65.5z" />
    <glyph glyph-name="uni0645.medi" unicode="&#x645;" horiz-adv-x="995" arabic-form="medial" 
d="M0 -20q-20 0 -20 20v143q0 21 20 21q82 0 158 24q-19 34 -19 74q0 102 73 234.5t177.5 217.5t200.5 85q73 0 151 -201l45 -116q54 -140 85.5 -197t65.5 -89t73 -32q26 0 26 -25v-133q0 -26 -26 -26q-124 0 -219 106l-31 -106q-116 0 -229.5 20t-190.5 51
q-117 -42 -191 -56.5t-149 -14.5zM266 311q87 -72 212 -112.5t265 -51.5q-57 86 -97 211t-52 256q-95 -44 -194 -135t-134 -168z" />
    <glyph glyph-name="uni0645.fina" unicode="&#x645;" horiz-adv-x="1272" arabic-form="final" 
d="M422 262q0 78 45 166q-56 -35 -106.5 -73l-94.5 -70q16 -190 59 -460q50 -315 74 -521q-73 -76 -161 -135q-10 252 -45 596q-29 284 -29 438q0 67 84 241q6 15 111 92.5t204 137t178.5 92.5t130.5 33q31 0 59 -30.5t55.5 -86t82.5 -200.5q70 -188 120.5 -253t102.5 -65
q27 0 27 -25v-133q0 -26 -27 -26q-124 0 -219 106l-31 -106q-162 0 -312 38.5t-229 102.5t-79 141zM549 311q87 -72 212 -112.5t265 -51.5q-57 86 -97 211t-52 256q-95 -44 -194 -135t-134 -168z" />
    <glyph glyph-name="uni0647" unicode="&#x647;" horiz-adv-x="983" arabic-form="isolated" 
d="M164 283q0 233 235 458l-10 9q-48 32 -48 99q0 38 18.5 70.5t46.5 43.5q110 -36 215.5 -130.5t172 -214t66.5 -215.5q0 -71 -55.5 -196t-108.5 -160q-99 -67 -237 -67q-139 0 -217 82t-78 221zM741 279q-49 234 -272 411q-88 -83 -141.5 -173.5t-53.5 -162.5
q0 -87 55 -134.5t156 -47.5q58 0 131.5 30.5t124.5 76.5z" />
    <glyph glyph-name="uni0647.init" unicode="&#x647;" horiz-adv-x="1223" arabic-form="initial" 
d="M0 -20q-20 0 -20 20v147q0 17 20 17q157 0 276 31q-149 128 -149 284q0 70 28 150.5t77 143.5t108 93l55 158q205 -59 367 -177t250 -272t88 -315q0 -113 -123 -323q-311 37 -535 149q-97 -57 -204 -81.5t-238 -24.5zM213 481q107 -116 244 -200q121 94 121 256
q0 67 -44 127.5t-98 60.5q-38 0 -84 -31.5t-82.5 -86t-56.5 -126.5zM719 530q0 -183 -123 -319q164 -72 375 -98q0 155 -83.5 322.5t-219.5 283.5q51 -89 51 -189z" />
    <glyph glyph-name="uni0647.medi" unicode="&#x647;" horiz-adv-x="938" arabic-form="medial" 
d="M782 -35q66 -34 102 -80t36 -92q0 -36 -33 -123t-49 -106q-25 -31 -85 -53.5t-118 -22.5q-187 0 -306 111.5t-149 316.5l-92 -39l-25 105l-25 -2h-18q-20 0 -20 20v143q0 21 20 21q74 0 158 6q45 444 451 829l86 -24q8 -110 43 -284q30 -156 30 -230q0 -190 -196 -316
q152 19 360 19q27 0 27 -25v-133q0 -26 -27 -26q-101 0 -170 -15zM575 758q-98 -139 -144.5 -229t-74.5 -183.5t-32 -185.5q179 23 325 143l-21 122q-44 227 -53 333zM432 -20q-34 0 -94 -15q32 -146 114.5 -226.5t202.5 -80.5q44 0 90 17.5t70 45.5q-19 66 -78.5 127
t-140.5 96.5t-164 35.5z" />
    <glyph glyph-name="uni0647.fina" unicode="&#x647;" horiz-adv-x="1090" arabic-form="final" 
d="M672 121q-124 10 -193 26t-150 55t-123 75.5t-42 66.5q0 31 31.5 106.5t54.5 116.5q35 65 152.5 150t261.5 145l-13 101q48 46 91.5 75l91.5 60q9 -411 21 -719l5 -154q109 -61 250 -61q20 0 20 -21v-143q0 -20 -20 -20q-146 0 -236 54.5t-106 155.5l-14 86zM748 317
l-62 390q-286 -102 -405 -252q62 -48 117 -75.5t144 -43.5t206 -19z" />
    <glyph glyph-name="uni0648" unicode="&#x648;" horiz-adv-x="1128" arabic-form="isolated" 
d="M465 -512q-80 0 -197 48.5t-186 105.5l35 79q132 -45 293 -45q179 0 308 106.5t197 315.5l-2 10v9q-142 -137 -323 -137q-138 0 -219.5 84.5t-81.5 226.5q0 123 48.5 241.5t129 192.5t162.5 74q99 0 186 -90.5t139 -241t52 -293.5q0 -172 -76.5 -336.5t-199 -257
t-265.5 -92.5zM647 176q69 0 122 12t122 43q-42 160 -126.5 261.5t-172.5 101.5q-49 0 -97.5 -36t-81 -94.5t-32.5 -105.5q0 -88 69.5 -135t196.5 -47z" />
    <glyph glyph-name="uni0648.fina" unicode="&#x648;" horiz-adv-x="1128" arabic-form="final" 
d="M465 -512q-80 0 -197 48.5t-186 105.5l35 79q132 -45 293 -45q311 0 458 308q-258 11 -367 44t-160.5 103t-51.5 180q0 123 48.5 241.5t129 192.5t162.5 74q98 0 183.5 -87t139.5 -243t54 -315v-10h143q20 0 20 -21v-143q0 -20 -20 -20h-82l-86 2q-37 -142 -114.5 -256
t-181.5 -176t-220 -62zM907 166q-20 123 -69 227.5t-114 162.5t-132 58q-49 0 -98 -36.5t-81 -93.5t-32 -105q0 -76 59 -122t203 -73q65 -13 264 -18z" />
    <glyph glyph-name="uni0649" unicode="&#x649;" horiz-adv-x="1489" arabic-form="isolated" 
d="M1319 -135q-61 11 -127 16q-187 14 -275.5 45t-134 99t-45.5 174q0 116 81 257.5t195.5 242t207.5 100.5q71 0 115.5 -47.5t70.5 -161.5l-86 -25q-17 23 -33 30t-45 7q-63 0 -158 -66.5t-168.5 -161t-93.5 -184.5q36 -34 99.5 -55t165.5 -35q129 -19 193 -43.5t94 -68
t30 -121.5q0 -109 -130.5 -245t-320.5 -227t-354 -91q-206 0 -321 118.5t-115 333.5q0 75 8.5 131.5t38.5 180.5l88 -21q-27 -103 -27 -172q0 -178 88.5 -275.5t245.5 -97.5q114 0 263.5 50.5t278 137t171.5 175.5z" />
    <glyph glyph-name="uni0649.fina" unicode="&#x649;" horiz-adv-x="1655" arabic-form="final" 
d="M1669 -20q-79 0 -189.5 12t-183.5 31l217 -117q36 -22 46 -58.5t10 -83.5q0 -107 -136 -216t-344 -176.5t-407 -67.5q-248 0 -383 118.5t-135 333.5q0 75 8.5 131.5t38.5 180.5l88 -21q-27 -103 -27 -172q0 -174 110 -273.5t306 -99.5q283 0 499 69.5t296 190.5l-48 27
q-380 205 -380 252q0 29 15.5 66.5t37.5 66.5t29 29h4q213 -39 528 -39q27 0 27 -27v-133q0 -24 -27 -24z" />
    <glyph glyph-name="uni066E.init" unicode="&#x66e;" horiz-adv-x="664" 
d="M0 -20q-20 0 -20 20v143q0 21 20 21q107 0 223 23.5t203 64.5q-29 107 -87 264q-46 124 -46 162q0 55 44 110t114 93q10 -70 25.5 -139.5l30 -136.5t24.5 -129.5t10 -117.5q0 -77 -84 -245q-223 -133 -457 -133z" />
    <glyph glyph-name="uni066E.medi" unicode="&#x66e;" horiz-adv-x="705" 
d="M0 -20q-20 0 -20 20v143q0 21 20 21q103 0 169 22t100 65t94 160l43 78q20 39 73 39q36 0 60 -18q-67 -162 -117 -256q142 -90 303 -90q20 0 20 -21v-143q0 -20 -20 -20q-224 0 -381 141l-19 -28l-20 -25q-15 -18 -64 -40t-112 -35t-129 -13z" />
    <glyph glyph-name="uni066E.fina" unicode="&#x66e;" horiz-adv-x="2050" 
d="M2071 -20q-246 0 -412 170q-150 -81 -362.5 -125.5t-462.5 -44.5q-289 0 -438.5 105t-149.5 306q0 158 33 264h86q-2 -11 -5.5 -49.5t-3.5 -68.5q0 -141 56 -220t173 -116t300 -37q127 0 284 21t277 53t162 63.5t80 100.5l34 61q23 38 74 38q35 0 59 -18
q-66 -164 -100 -221q140 -98 316 -98q20 0 20 -21v-143q0 -20 -20 -20z" />
    <glyph glyph-name="uni066F.init" unicode="&#x66f;" horiz-adv-x="1012" 
d="M774 293q-13 106 -33 188q-169 -131 -342 -131q-105 0 -172 78.5t-67 202.5q0 119 41 228.5t110 174t148 64.5q123 0 219.5 -89t153.5 -252t57 -358q0 -77 -84 -245q-146 -91 -328 -132.5t-475 -41.5q-22 0 -22 22v139q0 23 22 23q267 0 446 32t326 97zM457 532
q119 0 254 60q-105 301 -289 301q-72 0 -121 -66t-49 -149q0 -75 49 -110.5t156 -35.5z" />
    <glyph glyph-name="uni066F.medi" unicode="&#x66f;" horiz-adv-x="932" 
d="M209 172q-88 99 -88 207q0 61 13.5 141.5t29.5 110.5q68 120 169 185t212 65q63 0 121.5 -62.5t94.5 -164.5t36 -205q0 -155 -103 -273q90 -12 258 -12q21 0 21 -21v-143q0 -20 -21 -20q-308 0 -493 77q-86 -41 -191 -59t-266 -18q-22 0 -22 22v139q0 23 22 23
q139 0 207 8zM211 401q100 -117 248 -174q137 54 243 148q-6 61 -39 133t-74 120t-67 48q-69 0 -163 -83t-148 -192z" />
    <glyph glyph-name="uni066F.fina" unicode="&#x66f;" horiz-adv-x="1546" 
d="M995 819q100 0 194.5 -86t158.5 -237.5t82 -331.5l51 -1l86 1q20 0 20 -21v-143q0 -20 -20 -20h-133q-13 -183 -119 -334.5t-295 -246.5t-379 -95q-225 0 -351 118.5t-126 333.5q0 75 8.5 131.5t38.5 180.5l88 -21q-27 -103 -27 -172q0 -181 97 -277t278 -96
q213 0 392.5 83.5t273.5 226.5l-10 170q-309 10 -424.5 43t-169.5 103t-54 183q0 123 48.5 241.5t129 192.5t162.5 74zM1274 166q-30 137 -79.5 238t-111.5 155.5t-125 54.5q-48 0 -97 -36.5t-81 -93.5t-32 -105q0 -76 59 -122t203 -73q59 -13 264 -18z" />
    <glyph glyph-name="uni06C1.init" unicode="&#x6c1;" horiz-adv-x="664" arabic-form="initial" 
d="M418 -492q-56 6 -88.5 44t-32.5 88q0 85 40 175t118 193l73 -45q-86 -119 -86 -215q0 -37 26 -60.5t85 -41.5q-19 -40 -44.5 -69.5t-52 -49t-38.5 -19.5zM0 -20q-20 0 -20 20v143q0 21 20 21q107 0 223 23.5t203 64.5q-29 107 -87 264q-46 124 -46 162q0 55 44 110
t114 93q10 -70 25.5 -139.5l30 -136.5t24.5 -129.5t10 -117.5q0 -77 -84 -245q-223 -133 -457 -133z" />
    <glyph glyph-name="uni06C1.medi" unicode="&#x6c1;" horiz-adv-x="952" arabic-form="medial" 
d="M463 -547q-152 115 -236.5 263.5t-91.5 299.5q-30 -16 -72 -26t-63 -10q-20 0 -20 20v143q0 21 20 21q62 0 87 6t44 19.5t29 37.5q32 77 93 77q43 0 77 -42q-10 -22 -17.5 -66.5t-7.5 -74.5q0 -114 50 -229.5t147 -219.5q18 123 43.5 196t65 122.5t94.5 91.5t119 62
t143 20q26 0 26 -25v-133q0 -26 -26 -26q-121 0 -181 -8t-100 -25q-35 -79 -44 -175.5t-9 -207.5zM825 -547q-56 6 -88 44t-32 87q0 88 37 169.5t110 176.5l74 -45q-76 -103 -76 -192q0 -37 26 -60.5t85 -42.5q-19 -40 -44.5 -69t-53 -48.5t-38.5 -19.5z" />
    <glyph glyph-name="uni06BE" unicode="&#x6be;" horiz-adv-x="1520" arabic-form="isolated" 
d="M365 -20q-102 0 -324 120l22 84q90 -20 267 -20q132 0 243 33q-149 126 -149 282q0 70 28 150.5t77 143.5t108 93l55 158q202 -57 364.5 -175.5t251.5 -274t89 -314.5q0 -113 -123 -323q-311 37 -535 149q-177 -106 -374 -106zM510 481q112 -121 242 -200q122 96 122 256
q0 66 -43 127t-98 61q-38 0 -84 -31.5t-82.5 -86t-56.5 -126.5zM1016 530q0 -185 -123 -321q174 -74 375 -96q0 159 -84 325.5t-217 280.5q49 -93 49 -189z" />
    <glyph glyph-name="uni06D2" unicode="&#x6d2;" horiz-adv-x="1862" arabic-form="isolated" 
d="M979 -20q-177 0 -368 18t-319 48.5t-128 59.5q0 43 27.5 146.5t50.5 126.5q80 80 198 135q34 16 139 51q102 35 136 49.5t68 48.5t55 74l75 -41q-34 -103 -83.5 -159.5t-127.5 -79.5q-173 -52 -248 -87.5t-180 -105.5q133 -55 304.5 -77.5t431.5 -22.5q185 0 397.5 30
t378.5 80q34 -40 34 -78q0 -61 -76 -103.5t-314 -77.5t-451 -35z" />
    <glyph glyph-name="uni06D2.fina" unicode="&#x6d2;" horiz-adv-x="1276" arabic-form="final" 
d="M238 -258q238 -70 550 -70q324 0 627 56q35 -42 35 -83q0 -49 -43.5 -83t-108.5 -43q-203 -31 -526 -31q-155 0 -303.5 23.5t-247 59.5t-98.5 62q0 31 23.5 110t37.5 91q178 171 442.5 250.5t676.5 79.5q26 0 26 -27v-133q0 -24 -26 -24q-234 0 -435.5 -24t-350 -76.5
t-279.5 -137.5z" />
    <glyph glyph-name="uni06A9" unicode="&#x6a9;" horiz-adv-x="1739" arabic-form="isolated" 
d="M762 164q158 0 277.5 15t213 42.5t199.5 83.5q-91 276 -508 473q-22 -8 -57 -8q-63 0 -105.5 44t-42.5 112q0 45 24.5 134t39.5 97q288 150 446 223t410 176q19 -16 28 -42t9 -49l-2 -21q-12 -85 -101 -121q-440 -181 -766 -330q177 -43 346.5 -145.5t272 -230.5
t102.5 -242q0 -196 -202.5 -295.5t-604.5 -99.5q-299 0 -438 86t-139 253q0 83 31 154h86q-9 -30 -9 -98q0 -112 110 -161.5t380 -49.5z" />
    <glyph glyph-name="uni06A9.fina" unicode="&#x6a9;" horiz-adv-x="1870" arabic-form="final" 
d="M705 -20q-283 0 -412 85.5t-129 262.5q0 76 43 174l78 -29q-13 -65 -13 -98q0 -110 104 -160.5t345 -50.5q123 0 242 25.5t180 62.5q-34 164 -133 295q-107 127 -175.5 247t-68.5 185q0 63 23 103.5t81 72.5q142 79 289.5 147t603.5 254q19 -16 28.5 -42t9.5 -49l-2 -21
q-12 -85 -101 -121l-232 -94q-404 -164 -614 -258q190 -232 319 -365.5t263 -245t240.5 -154t215.5 -42.5q21 0 21 -21v-143q0 -20 -21 -20q-136 0 -244 38t-219 126.5t-192 164.5q0 -101 -57 -196q-97 -61 -226.5 -97t-246.5 -36z" />
    <glyph glyph-name="uni06AF" unicode="&#x6af;" horiz-adv-x="1739" arabic-form="isolated" 
d="M762 164q158 0 277.5 15t213 42.5t199.5 83.5q-91 276 -508 473q-22 -8 -57 -8q-63 0 -105.5 44t-42.5 112q0 45 24.5 134t39.5 97q288 150 446 223t410 176q19 -16 28 -42t9 -49l-2 -21q-12 -85 -101 -121q-440 -181 -766 -330q177 -43 346.5 -145.5t272 -230.5
t102.5 -242q0 -196 -202.5 -295.5t-604.5 -99.5q-299 0 -438 86t-139 253q0 83 31 154h86q-9 -30 -9 -98q0 -112 110 -161.5t380 -49.5zM754 1270q-16 67 -16 94q0 12 4 14q56 29 369 180l474 226q34 -25 34 -61l-1 -15q-10 -44 -59 -66l-556 -253.5z" />
    <glyph glyph-name="uni06AF.init" unicode="&#x6af;" horiz-adv-x="999" arabic-form="initial" 
d="M0 -20q-20 0 -20 20v143q0 21 20 21q220 0 393 32.5t318 108.5q-90 274 -506 473q-22 -8 -58 -8q-62 0 -104.5 44t-42.5 112q0 45 24.5 134t38.5 97q282 147 449.5 224.5t407.5 174.5q19 -16 28 -42t9 -49l-2 -21q-12 -85 -101 -121q-425 -174 -766 -330
q184 -45 352.5 -149.5t267.5 -231.5t99 -237q0 -194 -201 -294.5t-606 -100.5zM11 1270q-16 67 -16 94q0 12 4 14q56 29 369 180l474 226q34 -25 34 -61l-1 -15q-10 -44 -59 -66l-556 -253.5z" />
    <glyph glyph-name="uni06AF.medi" unicode="&#x6af;" horiz-adv-x="1106" arabic-form="medial" 
d="M379 252q-34 164 -133 295q-107 127 -175.5 247t-68.5 185q0 63 23 103.5t81 72.5q142 79 289.5 147t603.5 254q19 -16 28.5 -42t9.5 -49l-2 -21q-12 -85 -101 -121l-232 -94q-404 -164 -614 -258q190 -232 319 -365.5t263 -245t240.5 -154t215.5 -42.5q21 0 21 -21v-143
q0 -20 -21 -20q-136 0 -244 38t-219 126.5t-192 164.5q0 -101 -57 -196q-110 -65 -207.5 -99t-206.5 -34q-20 0 -20 20v143q0 21 20 21q87 0 190.5 23.5t188.5 64.5zM11 1270q-16 67 -16 94q0 12 4 14q56 29 369 180l474 226q34 -25 34 -61l-1 -15q-10 -44 -59 -66
l-556 -253.5z" />
    <glyph glyph-name="uni06AF.fina" unicode="&#x6af;" horiz-adv-x="1870" arabic-form="final" 
d="M705 -20q-283 0 -412 85.5t-129 262.5q0 76 43 174l78 -29q-13 -65 -13 -98q0 -110 104 -160.5t345 -50.5q123 0 242 25.5t180 62.5q-34 164 -133 295q-107 127 -175.5 247t-68.5 185q0 63 23 103.5t81 72.5q142 79 289.5 147t603.5 254q19 -16 28.5 -42t9.5 -49l-2 -21
q-12 -85 -101 -121l-232 -94q-404 -164 -614 -258q190 -232 319 -365.5t263 -245t240.5 -154t215.5 -42.5q21 0 21 -21v-143q0 -20 -21 -20q-136 0 -244 38t-219 126.5t-192 164.5q0 -101 -57 -196q-97 -61 -226.5 -97t-246.5 -36zM754 1270q-16 67 -16 94q0 12 4 14
q56 29 369 180l474 226q34 -25 34 -61l-1 -15q-10 -44 -59 -66l-556 -253.5z" />
    <glyph glyph-name="uni06BA" unicode="&#x6ba;" horiz-adv-x="1413" arabic-form="isolated" 
d="M600 -696q-206 0 -321 118.5t-115 333.5q0 75 8.5 131.5t38.5 180.5l88 -21q-27 -103 -27 -172q0 -178 88.5 -275.5t245.5 -97.5q115 0 237.5 39t219.5 109t137 153q-158 346 -158 461q0 126 158 215q11 -85 26.5 -162.5l29.5 -149.5t24 -139.5t10 -133.5
q0 -145 -92.5 -280t-256.5 -222.5t-341 -87.5z" />
    <glyph glyph-name="uni06BA.fina" unicode="&#x6ba;" horiz-adv-x="1411" arabic-form="final" 
d="M1432 -20q-82 0 -150 32q8 -77 8 -118q0 -145 -92.5 -280t-256.5 -222.5t-341 -87.5q-206 0 -321 118.5t-115 333.5q0 75 8.5 131.5t38.5 180.5l88 -21q-27 -103 -27 -172q0 -178 88.5 -275.5t245.5 -97.5q115 0 237.5 39t219.5 109t137 153q-158 346 -158 461
q0 126 158 215q8 -64 47 -270q50 -28 93.5 -36.5t91.5 -8.5q20 0 20 -21v-143q0 -20 -20 -20z" />
    <glyph glyph-name="uni062F.fina" unicode="&#x62f;" horiz-adv-x="1141" arabic-form="final" 
d="M1161 -20q-185 0 -297 126q-216 -126 -487 -126q-145 0 -220 39t-75 114q0 35 11.5 69.5t31.5 57.5q60 -49 137 -72.5t191 -23.5q165 0 333 49q-50 80 -108 211.5t-89.5 235.5t-31.5 143q0 59 33.5 100t93.5 60q72 -265 135.5 -431.5t141 -267t200.5 -100.5q21 0 21 -21
v-143q0 -20 -21 -20z" />
    <glyph glyph-name="uni06C1.fina" unicode="&#x6c1;" horiz-adv-x="1024" arabic-form="final" 
d="M1038 -20q-81 0 -140.5 19t-103.5 48t-76 62l-58.5 62t-51 48t-53.5 19q-60 0 -138.5 -61t-189.5 -197l-63 55q269 397 471 397q47 0 92 -33t97 -101q51 -66 103 -100t111 -34q27 0 27 -25v-133q0 -26 -27 -26z" />
    <glyph glyph-name="uni0686" unicode="&#x686;" horiz-adv-x="1532" arabic-form="isolated" 
d="M328 -80q0 -124 64.5 -217t196.5 -147t285 -54q165 0 305 17.5t285 50.5l27 -82q-184 -101 -334 -142.5t-289 -41.5q-296 0 -461 163.5t-165 452.5q0 244 155 450.5t404 303.5l-96 32q-160 56 -242 56q-113 0 -208 -59l-56 -35q-14 14 -24.5 39.5t-10.5 54.5
q0 92 81 146.5t210 54.5q80 0 176.5 -20.5t228.5 -63.5q257 -84 420 -84h38l120 4l-68 -185q-64 -10 -141 -10q-227 -18 -449 -123t-337 -250.5t-115 -310.5zM874 96q-55 -81 -143 -164q-97 74 -160 148q65 59 156 162q40 -44 76 -78zM1257 131q-55 -81 -143 -164
q-101 77 -160 148q69 63 156 161q21 -23 147 -145zM1081 -168q-96 -103 -139 -133q-88 60 -152 133q49 44 144 148q56 -74 147 -148z" />
    <glyph glyph-name="uni0686.fina" unicode="&#x686;" horiz-adv-x="1722" arabic-form="final" 
d="M309 -694q-29 73 -48 163.5t-19 157.5q0 190 82.5 348.5t234.5 272t354 170.5q-62 31 -117 63t-108.5 58t-108.5 42.5t-116 16.5q-113 0 -208 -59l-56 -35q-14 14 -24.5 39.5t-10.5 54.5q0 92 81 146.5t210 54.5q94 0 190 -30t205 -91q209 -117 304.5 -152t210 -50.5
t251.5 -20.5l-92 -179q-177 21 -267 35h-14q47 -73 94 -101t130.5 -37t277.5 -9q20 0 20 -21v-143q0 -20 -20 -20q-207 2 -319.5 29.5t-178.5 90t-121 197.5q-211 -38 -392 -142t-273 -239.5t-92 -288.5q0 -61 12 -123.5t47 -154.5zM884 -299q-55 -81 -143 -164
q-97 74 -160 148q65 59 156 162q40 -44 76 -78zM1267 -264q-55 -81 -143 -164q-101 77 -160 148q69 63 156 161q21 -23 147 -145zM1091 -563q-96 -103 -139 -133q-88 60 -152 133q49 44 144 148q56 -74 147 -148z" />
    <glyph glyph-name="uni0623" unicode="&#x623;" horiz-adv-x="573" arabic-form="isolated" 
d="M379 1118q14 -406 14 -473v-88q0 -177 -16 -557l-111 -20q-4 326 -15 542l-5 105q-11 243 -46 618l-2 33q0 75 38.5 120t121.5 62q23 -91 43 -151l43 -135zM394 1794l2 12q0 13 -11 26t-28 13q-46 0 -85 -33.5t-57 -80.5q48 -61 147 -61q54 0 146 20l-6 -117
q-131 -35 -204.5 -64.5t-170.5 -81.5l-6 117q28 19 59 35t60 33q-111 20 -111 121q0 55 32 110.5t86 92t106 36.5q58 0 88 -29t30 -83q0 -17 -6 -42t-14 -40z" />
    <glyph glyph-name="uni0623.fina" unicode="&#x623;" horiz-adv-x="610" arabic-form="final" 
d="M346 1462q16 -376 23 -807q4 -267 9 -430q111 -61 252 -61q21 0 21 -21v-143q0 -20 -21 -20q-142 0 -236 57t-106 153q-47 380 -104 1137q65 68 162 135zM324 1794l2 12q0 13 -11 26t-28 13q-46 0 -85 -33.5t-57 -80.5q48 -61 147 -61q54 0 146 20l-6 -117
q-131 -35 -204.5 -64.5t-170.5 -81.5l-6 117q28 19 59 35t60 33q-111 20 -111 121q0 55 32 110.5t86 92t106 36.5q58 0 88 -29t30 -83q0 -17 -6 -42t-14 -40z" />
    <glyph glyph-name="uni0625" unicode="&#x625;" horiz-adv-x="616" arabic-form="isolated" 
d="M358 1118q14 -406 14 -473v-88q0 -177 -16 -557l-111 -20q-4 326 -15 542l-5 105q-11 243 -46 618l-2 33q0 75 38.5 120t121.5 62q23 -91 43 -151l43 -135zM410 -300l2 12q0 13 -11 26t-28 13q-46 0 -85 -33.5t-57 -80.5q48 -61 147 -61q54 0 146 20l-6 -117
q-131 -35 -204.5 -64.5t-170.5 -81.5l-6 117q28 19 59 35t60 33q-111 20 -111 121q0 55 32 110.5t86 92t106 36.5q58 0 88 -29t30 -83q0 -17 -6 -42t-14 -40z" />
    <glyph glyph-name="uni0625.fina" unicode="&#x625;" horiz-adv-x="610" arabic-form="final" 
d="M346 1462q16 -376 23 -807q4 -267 9 -430q111 -61 252 -61q21 0 21 -21v-143q0 -20 -21 -20q-142 0 -236 57t-106 153q-47 380 -104 1137q65 68 162 135zM523 -300l2 12q0 13 -11 26t-28 13q-46 0 -85 -33.5t-57 -80.5q48 -61 147 -61q54 0 146 20l-6 -117
q-131 -35 -204.5 -64.5t-170.5 -81.5l-6 117q28 19 59 35t60 33q-111 20 -111 121q0 55 32 110.5t86 92t106 36.5q58 0 88 -29t30 -83q0 -17 -6 -42t-14 -40z" />
    <glyph glyph-name="uni0622" unicode="&#x622;" horiz-adv-x="573" arabic-form="isolated" 
d="M381 1118q14 -406 14 -473v-88q0 -177 -16 -557l-111 -20q-4 326 -15 542l-5 105q-11 243 -46 618l-2 33q0 75 38.5 120t121.5 62q23 -91 43 -151l43 -135zM389 1555q-141 0 -313 65q-79 -34 -145 -71l-37 63q174 145 200 145q18 0 130 -25q111 -26 176 -26
q53 0 126.5 17t116.5 39l25 -66q-54 -57 -137 -99t-142 -42z" />
    <glyph glyph-name="uni0622.fina" unicode="&#x622;" horiz-adv-x="610" arabic-form="final" 
d="M346 1462q16 -376 23 -807q4 -267 9 -430q111 -61 252 -61q21 0 21 -21v-143q0 -20 -21 -20q-142 0 -236 57t-106 153q-47 380 -104 1137q65 68 162 135zM376 1555q-141 0 -313 65q-79 -34 -145 -71l-37 63q174 145 200 145q18 0 130 -25q111 -26 176 -26q53 0 126.5 17
t116.5 39l25 -66q-54 -57 -137 -99t-142 -42z" />
    <glyph glyph-name="uni0671" unicode="&#x671;" horiz-adv-x="573" arabic-form="isolated" 
d="M375 1118q14 -406 14 -473v-88q0 -177 -16 -557l-111 -20q-4 326 -15 542l-5 105q-11 243 -46 618l-2 33q0 75 38.5 120t121.5 62q23 -91 43 -151l43 -135zM318 1551q-53 0 -102.5 16.5t-112.5 48.5q-52 -24 -93 -65l-37 30q44 68 80.5 102.5t79.5 34.5q10 0 47 -16
q48 72 99 113t114 41q48 0 82.5 -46.5t34.5 -113.5q0 -37 -22 -92q-55 -36 -87.5 -44.5t-82.5 -8.5zM373 1753q-64 0 -141 -71q42 -21 86 -21q61 0 82.5 4.5t64.5 22.5q-34 65 -92 65z" />
    <glyph glyph-name="uni0671.fina" unicode="&#x671;" horiz-adv-x="610" arabic-form="final" 
d="M346 1462q16 -376 23 -807q4 -267 9 -430q111 -61 252 -61q21 0 21 -21v-143q0 -20 -21 -20q-142 0 -236 57t-106 153q-47 380 -104 1137q65 68 162 135zM332 1551q-53 0 -102.5 16.5t-112.5 48.5q-52 -24 -93 -65l-37 30q44 68 80.5 102.5t79.5 34.5q10 0 47 -16
q48 72 99 113t114 41q48 0 82.5 -46.5t34.5 -113.5q0 -37 -22 -92q-55 -36 -87.5 -44.5t-82.5 -8.5zM387 1753q-64 0 -141 -71q42 -21 86 -21q61 0 82.5 4.5t64.5 22.5q-34 65 -92 65z" />
    <glyph glyph-name="uni0628" unicode="&#x628;" horiz-adv-x="1860" arabic-form="isolated" 
d="M753 -20q-289 0 -438.5 105t-149.5 306q0 158 33 264h86q-2 -11 -5.5 -49.5t-3.5 -68.5q0 -141 56 -220t173 -116t300 -37q222 0 435 44.5t384 125.5q-29 107 -87 264q-46 124 -46 162q0 55 44 110t114 93q10 -70 25.5 -139.5l30 -136.5t24.5 -129.5t10 -117.5
q0 -77 -84 -245q-167 -106 -396 -160.5t-505 -54.5zM1192 -345q-51 -77 -156 -176q-107 83 -172 157q102 100 168 176q79 -86 160 -157z" />
    <glyph glyph-name="uni0628.init" unicode="&#x628;" horiz-adv-x="664" arabic-form="initial" 
d="M0 -20q-20 0 -20 20v143q0 21 20 21q107 0 223 23.5t203 64.5q-29 107 -87 264q-46 124 -46 162q0 55 44 110t114 93q10 -70 25.5 -139.5l30 -136.5t24.5 -129.5t10 -117.5q0 -77 -84 -245q-223 -133 -457 -133zM441 -345q-51 -77 -156 -176q-107 83 -172 157
q102 100 168 176q79 -86 160 -157z" />
    <glyph glyph-name="uni0628.medi" unicode="&#x628;" horiz-adv-x="705" arabic-form="medial" 
d="M0 -20q-20 0 -20 20v143q0 21 20 21q103 0 169 22t100 65t94 160l43 78q20 39 73 39q36 0 60 -18q-67 -162 -117 -256q142 -90 303 -90q20 0 20 -21v-143q0 -20 -20 -20q-224 0 -381 141l-19 -28l-20 -25q-15 -18 -64 -40t-112 -35t-129 -13zM503 -345q-51 -77 -156 -176
q-107 83 -172 157q102 100 168 176q79 -86 160 -157z" />
    <glyph glyph-name="uni0628.fina" unicode="&#x628;" horiz-adv-x="1968" arabic-form="final" 
d="M1990 -20q-246 0 -412 170q-150 -81 -362.5 -125.5t-462.5 -44.5q-289 0 -438.5 105t-149.5 306q0 158 33 264h86q-2 -11 -5.5 -49.5t-3.5 -68.5q0 -141 56 -220t173 -116t300 -37q127 0 284 21t277 53t162 63.5t80 100.5l34 61q23 38 74 38q35 0 59 -18
q-66 -164 -100 -221q140 -98 316 -98q20 0 20 -21v-143q0 -20 -20 -20zM1192 -345q-51 -77 -156 -176q-107 83 -172 157q102 100 168 176q79 -86 160 -157z" />
    <glyph glyph-name="uni067E" unicode="&#x67e;" horiz-adv-x="1860" arabic-form="isolated" 
d="M753 -20q-289 0 -438.5 105t-149.5 306q0 158 33 264h86q-2 -11 -5.5 -49.5t-3.5 -68.5q0 -141 56 -220t173 -116t300 -37q222 0 435 44.5t384 125.5q-29 107 -87 264q-46 124 -46 162q0 55 44 110t114 93q10 -70 25.5 -139.5l30 -136.5t24.5 -129.5t10 -117.5
q0 -77 -84 -245q-167 -106 -396 -160.5t-505 -54.5zM1040 -330q-55 -81 -143 -164q-97 74 -160 148q65 59 156 162q40 -44 76 -78zM1423 -295q-55 -81 -143 -164q-101 77 -160 148q69 63 156 161q21 -23 147 -145zM1247 -594q-96 -103 -139 -133q-88 60 -152 133
q49 44 144 148q56 -74 147 -148z" />
    <glyph glyph-name="uni067E.fina" unicode="&#x67e;" horiz-adv-x="1968" arabic-form="final" 
d="M1990 -20q-246 0 -412 170q-150 -81 -362.5 -125.5t-462.5 -44.5q-289 0 -438.5 105t-149.5 306q0 158 33 264h86q-2 -11 -5.5 -49.5t-3.5 -68.5q0 -141 56 -220t173 -116t300 -37q127 0 284 21t277 53t162 63.5t80 100.5l34 61q23 38 74 38q35 0 59 -18
q-66 -164 -100 -221q140 -98 316 -98q20 0 20 -21v-143q0 -20 -20 -20zM1040 -330q-55 -81 -143 -164q-97 74 -160 148q65 59 156 162q40 -44 76 -78zM1423 -295q-55 -81 -143 -164q-101 77 -160 148q69 63 156 161q21 -23 147 -145zM1247 -594q-96 -103 -139 -133
q-88 60 -152 133q49 44 144 148q56 -74 147 -148z" />
    <glyph glyph-name="uni067E.init" unicode="&#x67e;" horiz-adv-x="862" arabic-form="initial" 
d="M0 -20q-20 0 -20 20v143q0 21 20 21q85 0 206.5 9t221.5 29.5t162 49.5q-29 107 -87 264q-46 124 -46 162q0 55 44.5 110t112.5 93q11 -70 26.5 -139.5l30 -136.5t24.5 -129.5t10 -117.5q0 -77 -84 -245q-102 -62 -276.5 -97.5t-344.5 -35.5zM357 -330q-55 -81 -143 -164
q-97 74 -160 148q65 59 156 162q40 -44 76 -78zM740 -295q-55 -81 -143 -164q-101 77 -160 148q69 63 156 161q21 -23 147 -145zM564 -594q-96 -103 -139 -133q-88 60 -152 133q49 44 144 148q56 -74 147 -148z" />
    <glyph glyph-name="uni067E.medi" unicode="&#x67e;" horiz-adv-x="868" arabic-form="medial" 
d="M643 528q35 0 59 -18q-70 -170 -116 -256q142 -90 303 -90q20 0 20 -21v-143q0 -20 -20 -20q-224 0 -381 141l-19 -28l-20 -25q-15 -16 -91 -37.5t-175.5 -36t-202.5 -14.5q-20 0 -20 20v143q0 21 20 21q320 0 399 55q26 17 56.5 64.5t71.5 127.5l42 78q22 39 74 39z
M423 -330q-55 -81 -143 -164q-97 74 -160 148q65 59 156 162q40 -44 76 -78zM806 -295q-55 -81 -143 -164q-101 77 -160 148q69 63 156 161q21 -23 147 -145zM630 -594q-96 -103 -139 -133q-88 60 -152 133q49 44 144 148q56 -74 147 -148z" />
    <glyph glyph-name="uni062A" unicode="&#x62a;" horiz-adv-x="1860" arabic-form="isolated" 
d="M753 -20q-289 0 -438.5 105t-149.5 306q0 158 33 264h86q-2 -11 -5.5 -49.5t-3.5 -68.5q0 -141 56 -220t173 -116t300 -37q222 0 435 44.5t384 125.5q-29 107 -87 264q-46 124 -46 162q0 55 44 110t114 93q10 -70 25.5 -139.5l30 -136.5t24.5 -129.5t10 -117.5
q0 -77 -84 -245q-167 -106 -396 -160.5t-505 -54.5zM889 961q-55 -81 -143 -164q-99 76 -160 147q47 43 156 162q21 -23 147 -145zM1252 995q-54 -79 -144 -164q-94 72 -159 148q42 38 155 162q22 -24 148 -146z" />
    <glyph glyph-name="uni062A.init" unicode="&#x62a;" horiz-adv-x="788" arabic-form="initial" 
d="M0 -20q-20 0 -20 20v143q0 21 20 21q107 0 223 23.5t203 64.5q-29 107 -87 264q-46 124 -46 162q0 55 44 110t114 93q10 -70 25.5 -139.5l30 -136.5t24.5 -129.5t10 -117.5q0 -77 -84 -245q-223 -133 -457 -133zM304 1205q-55 -81 -143 -164q-99 76 -160 147
q47 43 156 162q21 -23 147 -145zM667 1239q-54 -79 -144 -164q-94 72 -159 148q42 38 155 162q22 -24 148 -146z" />
    <glyph glyph-name="uni062A.medi" unicode="&#x62a;" horiz-adv-x="868" arabic-form="medial" 
d="M643 528q35 0 59 -18q-70 -170 -116 -256q142 -90 303 -90q20 0 20 -21v-143q0 -20 -20 -20q-224 0 -381 141l-19 -28l-20 -25q-15 -16 -91 -37.5t-175.5 -36t-202.5 -14.5q-20 0 -20 20v143q0 21 20 21q320 0 399 55q26 17 56.5 64.5t71.5 127.5l42 78q22 39 74 39z
M386 864q-55 -81 -143 -164q-99 76 -160 147q47 43 156 162q21 -23 147 -145zM749 898q-54 -79 -144 -164q-94 72 -159 148q42 38 155 162q22 -24 148 -146z" />
    <glyph glyph-name="uni062A.fina" unicode="&#x62a;" horiz-adv-x="1968" arabic-form="final" 
d="M1990 -20q-246 0 -412 170q-150 -81 -362.5 -125.5t-462.5 -44.5q-289 0 -438.5 105t-149.5 306q0 158 33 264h86q-2 -11 -5.5 -49.5t-3.5 -68.5q0 -141 56 -220t173 -116t300 -37q127 0 284 21t277 53t162 63.5t80 100.5l34 61q23 38 74 38q35 0 59 -18
q-66 -164 -100 -221q140 -98 316 -98q20 0 20 -21v-143q0 -20 -20 -20zM979 812q-55 -81 -143 -164q-99 76 -160 147q47 43 156 162q21 -23 147 -145zM1342 846q-54 -79 -144 -164q-94 72 -159 148q42 38 155 162q22 -24 148 -146z" />
    <glyph glyph-name="uni062B" unicode="&#x62b;" horiz-adv-x="1860" arabic-form="isolated" 
d="M753 -20q-289 0 -438.5 105t-149.5 306q0 158 33 264h86q-2 -11 -5.5 -49.5t-3.5 -68.5q0 -141 56 -220t173 -116t300 -37q222 0 435 44.5t384 125.5q-29 107 -87 264q-46 124 -46 162q0 55 44 110t114 93q10 -70 25.5 -139.5l30 -136.5t24.5 -129.5t10 -117.5
q0 -77 -84 -245q-167 -106 -396 -160.5t-505 -54.5zM1061 1231q-96 -103 -139 -133q-88 60 -152 133q54 48 144 147q27 -36 73.5 -81t73.5 -66zM881 961q-54 -79 -144 -164q-97 74 -159 147q42 38 155 162q16 -17 148 -145zM1264 995q-54 -79 -144 -164q-94 72 -159 148
q42 38 155 162q22 -24 148 -146z" />
    <glyph glyph-name="uni062B.init" unicode="&#x62b;" horiz-adv-x="799" arabic-form="initial" 
d="M0 -20q-20 0 -20 20v143q0 21 20 21q107 0 223 23.5t203 64.5q-29 107 -87 264q-46 124 -46 162q0 55 44 110t114 93q10 -70 25.5 -139.5l30 -136.5t24.5 -129.5t10 -117.5q0 -77 -84 -245q-223 -133 -457 -133zM474 1475q-96 -103 -139 -133q-88 60 -152 133
q54 48 144 147q27 -36 73.5 -81t73.5 -66zM294 1205q-54 -79 -144 -164q-97 74 -159 147q42 38 155 162q16 -17 148 -145zM677 1239q-54 -79 -144 -164q-94 72 -159 148q42 38 155 162q22 -24 148 -146z" />
    <glyph glyph-name="uni062B.medi" unicode="&#x62b;" horiz-adv-x="868" arabic-form="medial" 
d="M643 528q35 0 59 -18q-70 -170 -116 -256q142 -90 303 -90q20 0 20 -21v-143q0 -20 -20 -20q-224 0 -381 141l-19 -28l-20 -25q-15 -16 -91 -37.5t-175.5 -36t-202.5 -14.5q-20 0 -20 20v143q0 21 20 21q320 0 399 55q26 17 56.5 64.5t71.5 127.5l42 78q22 39 74 39z
M556 1134q-96 -103 -139 -133q-88 60 -152 133q54 48 144 147q27 -36 73.5 -81t73.5 -66zM376 864q-54 -79 -144 -164q-97 74 -159 147q42 38 155 162q16 -17 148 -145zM759 898q-54 -79 -144 -164q-94 72 -159 148q42 38 155 162q22 -24 148 -146z" />
    <glyph glyph-name="uni062B.fina" unicode="&#x62b;" horiz-adv-x="1968" arabic-form="final" 
d="M1990 -20q-246 0 -412 170q-150 -81 -362.5 -125.5t-462.5 -44.5q-289 0 -438.5 105t-149.5 306q0 158 33 264h86q-2 -11 -5.5 -49.5t-3.5 -68.5q0 -141 56 -220t173 -116t300 -37q127 0 284 21t277 53t162 63.5t80 100.5l34 61q23 38 74 38q35 0 59 -18
q-66 -164 -100 -221q140 -98 316 -98q20 0 20 -21v-143q0 -20 -20 -20zM1151 1082q-96 -103 -139 -133q-88 60 -152 133q54 48 144 147q27 -36 73.5 -81t73.5 -66zM971 812q-54 -79 -144 -164q-97 74 -159 147q42 38 155 162q16 -17 148 -145zM1354 846q-54 -79 -144 -164
q-94 72 -159 148q42 38 155 162q22 -24 148 -146z" />
    <glyph glyph-name="uni0679" unicode="&#x679;" horiz-adv-x="1860" arabic-form="isolated" 
d="M753 -20q-289 0 -438.5 105t-149.5 306q0 158 33 264h86q-2 -11 -5.5 -49.5t-3.5 -68.5q0 -141 56 -220t173 -116t300 -37q222 0 435 44.5t384 125.5q-29 107 -87 264q-46 124 -46 162q0 55 44 110t114 93q10 -70 25.5 -139.5l30 -136.5t24.5 -129.5t10 -117.5
q0 -77 -84 -245q-167 -106 -396 -160.5t-505 -54.5zM514 865l133 -22q27 42 61 79l-51 253q-23 110 -23 130q0 26 38 49.5t87 32.5l35 -104l-24 -19q5 -58 6 -126.5t4 -137.5q62 59 119 92t94 33q41 0 91.5 -35t86 -86.5t35.5 -85.5q0 -68 -46.5 -124.5t-124.5 -89.5
t-157 -33q-66 0 -126 12.5t-114.5 34t-142.5 71.5zM976 976q-52 0 -116.5 -38.5t-124.5 -103.5q72 -8 149 -8q79 0 132.5 12t121.5 41q-21 39 -69 68t-93 29z" />
    <glyph glyph-name="uni0679.init" unicode="&#x679;" horiz-adv-x="827" arabic-form="initial" 
d="M2 -20q-20 0 -20 20v143q0 21 20 21q107 0 223 23.5t203 64.5q-29 107 -87 264q-46 124 -46 162q0 55 44 110t114 93q10 -70 25.5 -139.5l30 -136.5t24.5 -129.5t10 -117.5q0 -77 -84 -245q-223 -133 -457 -133zM-67 1257l133 -22q27 42 61 79l-51 253q-23 110 -23 130
q0 26 38 49.5t87 32.5l35 -104l-24 -19q5 -58 6 -126.5t4 -137.5q62 59 119 92t94 33q41 0 91.5 -35t86 -86.5t35.5 -85.5q0 -68 -46.5 -124.5t-124.5 -89.5t-157 -33q-66 0 -126 12.5t-114.5 34t-142.5 71.5zM395 1368q-52 0 -116.5 -38.5t-124.5 -103.5q72 -8 149 -8
q79 0 132.5 12t121.5 41q-21 39 -69 68t-93 29z" />
    <glyph glyph-name="uni0679.medi" unicode="&#x679;" horiz-adv-x="868" arabic-form="medial" 
d="M643 528q35 0 59 -18q-70 -170 -116 -256q142 -90 303 -90q20 0 20 -21v-143q0 -20 -20 -20q-224 0 -381 141l-19 -28l-20 -25q-15 -16 -91 -37.5t-175.5 -36t-202.5 -14.5q-20 0 -20 20v143q0 21 20 21q320 0 399 55q26 17 56.5 64.5t71.5 127.5l42 78q22 39 74 39z
M45 875l133 -22q27 42 61 79l-51 253q-23 110 -23 130q0 26 38 49.5t87 32.5l35 -104l-24 -19q5 -58 6 -126.5t4 -137.5q62 59 119 92t94 33q41 0 91.5 -35t86 -86.5t35.5 -85.5q0 -68 -46.5 -124.5t-124.5 -89.5t-157 -33q-66 0 -126 12.5t-114.5 34t-142.5 71.5zM507 986
q-52 0 -116.5 -38.5t-124.5 -103.5q72 -8 149 -8q79 0 132.5 12t121.5 41q-21 39 -69 68t-93 29z" />
    <glyph glyph-name="uni0679.fina" unicode="&#x679;" horiz-adv-x="1968" arabic-form="final" 
d="M1990 -20q-246 0 -412 170q-150 -81 -362.5 -125.5t-462.5 -44.5q-289 0 -438.5 105t-149.5 306q0 158 33 264h86q-2 -11 -5.5 -49.5t-3.5 -68.5q0 -141 56 -220t173 -116t300 -37q127 0 284 21t277 53t162 63.5t80 100.5l34 61q23 38 74 38q35 0 59 -18
q-66 -164 -100 -221q140 -98 316 -98q20 0 20 -21v-143q0 -20 -20 -20zM594 701l133 -22q27 42 61 79l-51 253q-23 110 -23 130q0 26 38 49.5t87 32.5l35 -104l-24 -19q5 -58 6 -126.5t4 -137.5q62 59 119 92t94 33q41 0 91.5 -35t86 -86.5t35.5 -85.5q0 -68 -46.5 -124.5
t-124.5 -89.5t-157 -33q-66 0 -126 12.5t-114.5 34t-142.5 71.5zM1056 812q-52 0 -116.5 -38.5t-124.5 -103.5q72 -8 149 -8q79 0 132.5 12t121.5 41q-21 39 -69 68t-93 29z" />
    <glyph glyph-name="uni0629" unicode="&#x629;" horiz-adv-x="1020" arabic-form="isolated" 
d="M201 283q0 233 235 458l-10 9q-48 32 -48 99q0 38 18.5 70.5t46.5 43.5q110 -36 215.5 -130.5t172 -214t66.5 -215.5q0 -71 -55.5 -196t-108.5 -160q-99 -67 -237 -67q-139 0 -217 82t-78 221zM778 279q-49 234 -272 411q-88 -83 -141.5 -173.5t-53.5 -162.5
q0 -87 55 -134.5t156 -47.5q58 0 131.5 30.5t124.5 76.5zM468 1305q-55 -81 -143 -164q-99 76 -160 147q47 43 156 162q21 -23 147 -145zM831 1339q-54 -79 -144 -164q-94 72 -159 148q42 38 155 162q22 -24 148 -146z" />
    <glyph glyph-name="uni0629.fina" unicode="&#x629;" horiz-adv-x="1126" arabic-form="final" 
d="M709 121q-124 10 -193 26t-150 55t-123 75.5t-42 66.5q0 31 31.5 106.5t54.5 116.5q35 65 152.5 150t261.5 145l-13 101q48 46 91.5 75l91.5 60q9 -411 21 -719l5 -154q109 -61 250 -61q20 0 20 -21v-143q0 -20 -20 -20q-146 0 -236 54.5t-106 155.5l-14 86zM785 317
l-62 390q-286 -102 -405 -252q62 -48 117 -75.5t144 -43.5t206 -19zM468 1381q-55 -81 -143 -164q-99 76 -160 147q47 43 156 162q21 -23 147 -145zM831 1415q-54 -79 -144 -164q-94 72 -159 148q42 38 155 162q22 -24 148 -146z" />
    <glyph glyph-name="uni0686.init" unicode="&#x686;" horiz-adv-x="1532" arabic-form="initial" 
d="M0 -20q-20 0 -20 20v143q0 21 20 21q356 0 557 61l110 36q100 37 155 54t112 27q-77 36 -136 80.5l-111.5 83.5t-105 65.5t-116.5 26.5q-47 0 -83.5 -8t-66.5 -21.5t-114 -64.5q-14 14 -24.5 39.5t-10.5 54.5q0 92 81 146.5t210 54.5q76 0 154 -33t182 -109
q119 -87 203.5 -133t181.5 -70t272 -22l-92 -178l-148 14q-108 -3 -155.5 -13t-109.5 -35.5t-175 -84.5q-125 -65 -225.5 -97.5t-218 -45t-326.5 -12.5zM753 -330q-55 -81 -143 -164q-97 74 -160 148q65 59 156 162q40 -44 76 -78zM1136 -295q-55 -81 -143 -164
q-101 77 -160 148q69 63 156 161q21 -23 147 -145zM960 -594q-96 -103 -139 -133q-88 60 -152 133q49 44 144 148q56 -74 147 -148z" />
    <glyph glyph-name="uni0686.medi" unicode="&#x686;" horiz-adv-x="1604" arabic-form="medial" 
d="M0 -20q-20 0 -20 20v143q0 21 20 21q356 0 557 61q70 21 197 75q101 42 178 58q-76 35 -135 77l-111.5 78t-105 60.5t-115.5 24.5q-47 0 -83.5 -8t-66.5 -21.5t-114 -64.5q-14 14 -24.5 39.5t-10.5 54.5q0 92 81 146.5t210 54.5q77 0 157 -32t179 -99q111 -77 183.5 -116
t134 -59t128.5 -30t211 -10l-92 -179q-122 9 -205 21h-16q33 -61 76 -86t127 -35t284 -10q21 0 21 -21v-143q0 -20 -21 -20q-181 1 -292.5 28t-181 84t-122.5 174q-48 -18 -108 -51q-220 -121 -330.5 -162t-233 -57t-356.5 -16zM753 -330q-55 -81 -143 -164q-97 74 -160 148
q65 59 156 162q40 -44 76 -78zM1136 -295q-55 -81 -143 -164q-101 77 -160 148q69 63 156 161q21 -23 147 -145zM960 -594q-96 -103 -139 -133q-88 60 -152 133q49 44 144 148q56 -74 147 -148z" />
    <glyph glyph-name="uni062C" unicode="&#x62c;" horiz-adv-x="1532" arabic-form="isolated" 
d="M328 -80q0 -124 64.5 -217t196.5 -147t285 -54q165 0 305 17.5t285 50.5l27 -82q-184 -101 -334 -142.5t-289 -41.5q-296 0 -461 163.5t-165 452.5q0 244 155 450.5t404 303.5l-96 32q-160 56 -242 56q-113 0 -208 -59l-56 -35q-14 14 -24.5 39.5t-10.5 54.5
q0 92 81 146.5t210 54.5q80 0 176.5 -20.5t228.5 -63.5q257 -84 420 -84h38l120 4l-68 -185q-64 -10 -141 -10q-227 -18 -449 -123t-337 -250.5t-115 -310.5zM1018 -21q-51 -77 -156 -176q-107 83 -172 157q102 100 168 176q79 -86 160 -157z" />
    <glyph glyph-name="uni062C.init" unicode="&#x62c;" horiz-adv-x="1532" arabic-form="initial" 
d="M0 -20q-20 0 -20 20v143q0 21 20 21q356 0 557 61l110 36q100 37 155 54t112 27q-77 36 -136 80.5l-111.5 83.5t-105 65.5t-116.5 26.5q-47 0 -83.5 -8t-66.5 -21.5t-114 -64.5q-14 14 -24.5 39.5t-10.5 54.5q0 92 81 146.5t210 54.5q76 0 154 -33t182 -109
q119 -87 203.5 -133t181.5 -70t272 -22l-92 -178l-148 14q-108 -3 -155.5 -13t-109.5 -35.5t-175 -84.5q-125 -65 -225.5 -97.5t-218 -45t-326.5 -12.5zM913 -314q-51 -77 -156 -176q-107 83 -172 157q102 100 168 176q79 -86 160 -157z" />
    <glyph glyph-name="uni062C.medi" unicode="&#x62c;" horiz-adv-x="1604" arabic-form="medial" 
d="M0 -20q-20 0 -20 20v143q0 21 20 21q356 0 557 61q70 21 197 75q101 42 178 58q-76 35 -135 77l-111.5 78t-105 60.5t-115.5 24.5q-47 0 -83.5 -8t-66.5 -21.5t-114 -64.5q-14 14 -24.5 39.5t-10.5 54.5q0 92 81 146.5t210 54.5q77 0 157 -32t179 -99q111 -77 183.5 -116
t134 -59t128.5 -30t211 -10l-92 -179q-122 9 -205 21h-16q33 -61 76 -86t127 -35t284 -10q21 0 21 -21v-143q0 -20 -21 -20q-181 1 -292.5 28t-181 84t-122.5 174q-48 -18 -108 -51q-220 -121 -330.5 -162t-233 -57t-356.5 -16zM913 -314q-51 -77 -156 -176
q-107 83 -172 157q102 100 168 176q79 -86 160 -157z" />
    <glyph glyph-name="uni062C.fina" unicode="&#x62c;" horiz-adv-x="1663" arabic-form="final" 
d="M1686 -20q-222 0 -320.5 15.5t-158.5 52.5t-103 107t-78 189q-206 -53 -368 -150.5t-246 -219t-84 -257.5q0 -193 143.5 -303t392.5 -110q122 0 235.5 15t272.5 52l27 -82q-158 -86 -303.5 -135t-237.5 -49q-185 0 -325 76t-215.5 216t-75.5 320q0 155 77 303.5
t217 265.5t314 179l-110 47q-113 50 -173 68t-104 18q-113 0 -208 -59l-56 -35q-14 14 -24.5 39.5t-10.5 54.5q0 92 81 146.5t210 54.5q70 0 153.5 -25.5t222.5 -89.5q251 -115 449 -115h38l120 4l-68 -184q-64 -10 -141 -10q-50 -4 -109 -14q33 -82 61.5 -116.5t70.5 -52.5
t115.5 -25t318.5 -7q20 0 20 -21v-143q0 -20 -20 -20zM987 -290q-51 -77 -156 -176q-107 83 -172 157q102 100 168 176q79 -86 160 -157z" />
    <glyph glyph-name="uni062E" unicode="&#x62e;" horiz-adv-x="1532" arabic-form="isolated" 
d="M328 -80q0 -124 64.5 -217t196.5 -147t285 -54q165 0 305 17.5t285 50.5l27 -82q-184 -101 -334 -142.5t-289 -41.5q-296 0 -461 163.5t-165 452.5q0 244 155 450.5t404 303.5l-96 32q-160 56 -242 56q-113 0 -208 -59l-56 -35q-14 14 -24.5 39.5t-10.5 54.5
q0 92 81 146.5t210 54.5q80 0 176.5 -20.5t228.5 -63.5q257 -84 420 -84h38l120 4l-68 -185q-64 -10 -141 -10q-227 -18 -449 -123t-337 -250.5t-115 -310.5zM950 1250q-51 -77 -156 -176q-107 83 -172 157q102 100 168 176q79 -86 160 -157z" />
    <glyph glyph-name="uni062E.init" unicode="&#x62e;" horiz-adv-x="1532" arabic-form="initial" 
d="M0 -20q-20 0 -20 20v143q0 21 20 21q356 0 557 61l110 36q100 37 155 54t112 27q-77 36 -136 80.5l-111.5 83.5t-105 65.5t-116.5 26.5q-47 0 -83.5 -8t-66.5 -21.5t-114 -64.5q-14 14 -24.5 39.5t-10.5 54.5q0 92 81 146.5t210 54.5q76 0 154 -33t182 -109
q119 -87 203.5 -133t181.5 -70t272 -22l-92 -178l-148 14q-108 -3 -155.5 -13t-109.5 -35.5t-175 -84.5q-125 -65 -225.5 -97.5t-218 -45t-326.5 -12.5zM1114 1057q-51 -77 -156 -176q-107 83 -172 157q102 100 168 176q79 -86 160 -157z" />
    <glyph glyph-name="uni062E.medi" unicode="&#x62e;" horiz-adv-x="1604" arabic-form="medial" 
d="M0 -20q-20 0 -20 20v143q0 21 20 21q356 0 557 61q70 21 197 75q101 42 178 58q-76 35 -135 77l-111.5 78t-105 60.5t-115.5 24.5q-47 0 -83.5 -8t-66.5 -21.5t-114 -64.5q-14 14 -24.5 39.5t-10.5 54.5q0 92 81 146.5t210 54.5q77 0 157 -32t179 -99q111 -77 183.5 -116
t134 -59t128.5 -30t211 -10l-92 -179q-122 9 -205 21h-16q33 -61 76 -86t127 -35t284 -10q21 0 21 -21v-143q0 -20 -21 -20q-181 1 -292.5 28t-181 84t-122.5 174q-48 -18 -108 -51q-220 -121 -330.5 -162t-233 -57t-356.5 -16zM1114 1057q-51 -77 -156 -176
q-107 83 -172 157q102 100 168 176q79 -86 160 -157z" />
    <glyph glyph-name="uni062E.fina" unicode="&#x62e;" horiz-adv-x="1663" arabic-form="final" 
d="M1686 -20q-222 0 -320.5 15.5t-158.5 52.5t-103 107t-78 189q-206 -53 -368 -150.5t-246 -219t-84 -257.5q0 -193 143.5 -303t392.5 -110q122 0 235.5 15t272.5 52l27 -82q-158 -86 -303.5 -135t-237.5 -49q-185 0 -325 76t-215.5 216t-75.5 320q0 155 77 303.5
t217 265.5t314 179l-110 47q-113 50 -173 68t-104 18q-113 0 -208 -59l-56 -35q-14 14 -24.5 39.5t-10.5 54.5q0 92 81 146.5t210 54.5q70 0 153.5 -25.5t222.5 -89.5q251 -115 449 -115h38l120 4l-68 -184q-64 -10 -141 -10q-50 -4 -109 -14q33 -82 61.5 -116.5t70.5 -52.5
t115.5 -25t318.5 -7q20 0 20 -21v-143q0 -20 -20 -20zM1051 1057q-51 -77 -156 -176q-107 83 -172 157q102 100 168 176q79 -86 160 -157z" />
    <glyph glyph-name="uni0630" unicode="&#x630;" horiz-adv-x="997" arabic-form="isolated" 
d="M377 -20q-145 0 -220 39t-75 114q0 35 11.5 69.5t31.5 57.5q60 -49 137 -72.5t191 -23.5q168 0 327 49q-40 111 -151 317l-43 79q-35 60 -50.5 104t-15.5 90q0 59 33.5 100t93.5 60q36 -99 79 -191l80.5 -174t63 -153t25.5 -126q0 -77 -84 -245q-182 -94 -434 -94z
M725 1280q-51 -77 -156 -176q-107 83 -172 157q102 100 168 176q79 -86 160 -157z" />
    <glyph glyph-name="uni0630.fina" unicode="&#x630;" horiz-adv-x="1141" arabic-form="final" 
d="M1161 -20q-185 0 -297 126q-216 -126 -487 -126q-145 0 -220 39t-75 114q0 35 11.5 69.5t31.5 57.5q60 -49 137 -72.5t191 -23.5q165 0 333 49q-50 80 -108 211.5t-89.5 235.5t-31.5 143q0 59 33.5 100t93.5 60q72 -265 135.5 -431.5t141 -267t200.5 -100.5q21 0 21 -21
v-143q0 -20 -21 -20zM725 1280q-51 -77 -156 -176q-107 83 -172 157q102 100 168 176q79 -86 160 -157z" />
    <glyph glyph-name="uni0688" unicode="&#x688;" horiz-adv-x="1006" arabic-form="isolated" 
d="M385 -20q-145 0 -220 39t-75 114q0 35 11.5 69.5t31.5 57.5q60 -49 137 -72.5t191 -23.5q168 0 327 49q-40 111 -151 317l-43 79q-35 60 -50.5 104t-15.5 90q0 59 33.5 100t93.5 60q36 -99 79 -191l80.5 -174t63 -153t25.5 -126q0 -77 -84 -245q-182 -94 -434 -94z
M101 1325l133 -22q27 42 61 79l-51 253q-23 110 -23 130q0 26 38 49.5t87 32.5l35 -104l-24 -19q5 -58 6 -126.5t4 -137.5q62 59 119 92t94 33q41 0 91.5 -35t86 -86.5t35.5 -85.5q0 -68 -46.5 -124.5t-124.5 -89.5t-157 -33q-66 0 -126 12.5t-114.5 34t-142.5 71.5z
M563 1436q-52 0 -116.5 -38.5t-124.5 -103.5q72 -8 149 -8q79 0 132.5 12t121.5 41q-21 39 -69 68t-93 29z" />
    <glyph glyph-name="uni0688.fina" unicode="&#x688;" horiz-adv-x="1141" arabic-form="final" 
d="M1161 -20q-185 0 -297 126q-216 -126 -487 -126q-145 0 -220 39t-75 114q0 35 11.5 69.5t31.5 57.5q60 -49 137 -72.5t191 -23.5q165 0 333 49q-50 80 -108 211.5t-89.5 235.5t-31.5 143q0 59 33.5 100t93.5 60q72 -265 135.5 -431.5t141 -267t200.5 -100.5q21 0 21 -21
v-143q0 -20 -21 -20zM133 1325l133 -22q27 42 61 79l-51 253q-23 110 -23 130q0 26 38 49.5t87 32.5l35 -104l-24 -19q5 -58 6 -126.5t4 -137.5q62 59 119 92t94 33q41 0 91.5 -35t86 -86.5t35.5 -85.5q0 -68 -46.5 -124.5t-124.5 -89.5t-157 -33q-66 0 -126 12.5t-114.5 34
t-142.5 71.5zM595 1436q-52 0 -116.5 -38.5t-124.5 -103.5q72 -8 149 -8q79 0 132.5 12t121.5 41q-21 39 -69 68t-93 29z" />
    <glyph glyph-name="uni0632" unicode="&#x632;" horiz-adv-x="897" arabic-form="isolated" 
d="M233 -512q-54 0 -148.5 40.5t-166.5 94.5l33 80q84 -17 129 -22t98 -5q180 0 309.5 107.5t196.5 314.5q-22 55 -43 95t-71 127q-45 75 -83 163.5t-38 149.5t37.5 98.5t103.5 69.5q16 -65 68 -200q73 -193 94.5 -280t21.5 -147q0 -188 -70.5 -347t-195 -249t-275.5 -90z
M628 1139q-51 -77 -156 -176q-107 83 -172 157q102 100 168 176q79 -86 160 -157z" />
    <glyph glyph-name="uni0632.fina" unicode="&#x632;" horiz-adv-x="940" arabic-form="final" 
d="M961 -20q-114 0 -197 59q-39 -247 -184.5 -399t-346.5 -152q-54 0 -148.5 40.5t-166.5 94.5l33 80q84 -17 129 -22t98 -5q180 0 309.5 107.5t196.5 314.5q-22 55 -43 95t-71 127q-45 75 -83 163.5t-38 149.5t37.5 98.5t103.5 69.5q15 -62 43.5 -136.5l57 -152.5
t52 -155.5t29.5 -145.5q84 -47 189 -47q20 0 20 -21v-143q0 -20 -20 -20zM628 1139q-51 -77 -156 -176q-107 83 -172 157q102 100 168 176q79 -86 160 -157z" />
    <glyph glyph-name="uni0691" unicode="&#x691;" horiz-adv-x="897" arabic-form="isolated" 
d="M233 -512q-54 0 -148.5 40.5t-166.5 94.5l33 80q84 -17 129 -22t98 -5q180 0 309.5 107.5t196.5 314.5q-22 55 -43 95t-71 127q-45 75 -83 163.5t-38 149.5t37.5 98.5t103.5 69.5q16 -65 68 -200q73 -193 94.5 -280t21.5 -147q0 -188 -70.5 -347t-195 -249t-275.5 -90z
M21 1143l133 -22q27 42 61 79l-51 253q-23 110 -23 130q0 26 38 49.5t87 32.5l35 -104l-24 -19q5 -58 6 -126.5t4 -137.5q62 59 119 92t94 33q41 0 91.5 -35t86 -86.5t35.5 -85.5q0 -68 -46.5 -124.5t-124.5 -89.5t-157 -33q-66 0 -126 12.5t-114.5 34t-142.5 71.5z
M483 1254q-52 0 -116.5 -38.5t-124.5 -103.5q72 -8 149 -8q79 0 132.5 12t121.5 41q-21 39 -69 68t-93 29z" />
    <glyph glyph-name="uni0691.fina" unicode="&#x691;" horiz-adv-x="940" arabic-form="final" 
d="M961 -20q-114 0 -197 59q-39 -247 -184.5 -399t-346.5 -152q-54 0 -148.5 40.5t-166.5 94.5l33 80q84 -17 129 -22t98 -5q180 0 309.5 107.5t196.5 314.5q-22 55 -43 95t-71 127q-45 75 -83 163.5t-38 149.5t37.5 98.5t103.5 69.5q15 -62 43.5 -136.5l57 -152.5
t52 -155.5t29.5 -145.5q84 -47 189 -47q20 0 20 -21v-143q0 -20 -20 -20zM21 1143l133 -22q27 42 61 79l-51 253q-23 110 -23 130q0 26 38 49.5t87 32.5l35 -104l-24 -19q5 -58 6 -126.5t4 -137.5q62 59 119 92t94 33q41 0 91.5 -35t86 -86.5t35.5 -85.5q0 -68 -46.5 -124.5
t-124.5 -89.5t-157 -33q-66 0 -126 12.5t-114.5 34t-142.5 71.5zM483 1254q-52 0 -116.5 -38.5t-124.5 -103.5q72 -8 149 -8q79 0 132.5 12t121.5 41q-21 39 -69 68t-93 29z" />
    <glyph glyph-name="uni0698" unicode="&#x698;" horiz-adv-x="930" arabic-form="isolated" 
d="M233 -512q-54 0 -148.5 40.5t-166.5 94.5l33 80q84 -17 129 -22t98 -5q180 0 309.5 107.5t196.5 314.5q-22 55 -43 95t-71 127q-45 75 -83 163.5t-38 149.5t37.5 98.5t103.5 69.5q16 -65 68 -200q73 -193 94.5 -280t21.5 -147q0 -188 -70.5 -347t-195 -249t-275.5 -90z
M605 1409q-96 -103 -139 -133q-88 60 -152 133q54 48 144 147q27 -36 73.5 -81t73.5 -66zM425 1139q-54 -79 -144 -164q-97 74 -159 147q42 38 155 162q16 -17 148 -145zM808 1173q-54 -79 -144 -164q-94 72 -159 148q42 38 155 162q22 -24 148 -146z" />
    <glyph glyph-name="uni0698.fina" unicode="&#x698;" horiz-adv-x="940" arabic-form="final" 
d="M961 -20q-114 0 -197 59q-39 -247 -184.5 -399t-346.5 -152q-54 0 -148.5 40.5t-166.5 94.5l33 80q84 -17 129 -22t98 -5q180 0 309.5 107.5t196.5 314.5q-22 55 -43 95t-71 127q-45 75 -83 163.5t-38 149.5t37.5 98.5t103.5 69.5q15 -62 43.5 -136.5l57 -152.5
t52 -155.5t29.5 -145.5q84 -47 189 -47q20 0 20 -21v-143q0 -20 -20 -20zM605 1409q-96 -103 -139 -133q-88 60 -152 133q54 48 144 147q27 -36 73.5 -81t73.5 -66zM425 1139q-54 -79 -144 -164q-97 74 -159 147q42 38 155 162q16 -17 148 -145zM808 1173q-54 -79 -144 -164
q-94 72 -159 148q42 38 155 162q22 -24 148 -146z" />
    <glyph glyph-name="uni0634" unicode="&#x634;" horiz-adv-x="2441" arabic-form="isolated" 
d="M600 -696q-206 0 -321 118.5t-115 333.5q0 75 8.5 131.5t38.5 180.5l88 -21q-27 -103 -27 -172q0 -178 88.5 -275.5t245.5 -97.5q115 0 237.5 39t219.5 109t137 153q-158 346 -158 461q0 126 158 215q10 -89 51 -291q74 -24 152 -24q136 0 213 24q14 23 28 69l30 98
q34 112 57.5 159.5t46.5 59.5t50 13q33 0 56 -18q-31 -66 -56 -147l-48 -160q108 -50 206.5 -71t217.5 -21q-29 106 -90 264q-48 123 -48 162q0 55 44 110t114 93q11 -70 27 -139.5l31 -136.5t25.5 -129.5t10.5 -117.5q0 -44 -28.5 -136t-63.5 -160q-157 0 -266.5 20
t-245.5 84l-20 -39q-17 -29 -104 -47t-214 -18q-52 0 -92 8q6 -50 6 -94q0 -145 -92.5 -280t-256.5 -222.5t-341 -87.5zM1890 1231q-96 -103 -139 -133q-88 60 -152 133q54 48 144 147q27 -36 73.5 -81t73.5 -66zM1710 961q-54 -79 -144 -164q-97 74 -159 147q42 38 155 162
q16 -17 148 -145zM2093 995q-54 -79 -144 -164q-94 72 -159 148q42 38 155 162q22 -24 148 -146z" />
    <glyph glyph-name="uni0634.init" unicode="&#x634;" horiz-adv-x="1585" arabic-form="initial" 
d="M545 -20q-68 0 -155 21t-140 52q-79 -73 -250 -73q-20 0 -20 20v143q0 21 20 21q67 0 111 12.5t84 42.5q31 25 50.5 49.5t78.5 124.5q21 38 74 38q37 0 59 -17q-69 -165 -101 -221q82 -29 215 -29q114 0 189 24q16 27 58 167q29 101 54.5 153.5t49.5 65.5t50 13
q33 0 56 -18q-31 -66 -56 -147l-48 -160q108 -50 206.5 -71t217.5 -21q-28 106 -90 264q-48 123 -48 162q0 55 44 110t114 93q11 -70 27 -139.5l31 -136.5t25.5 -129.5t10.5 -117.5q0 -44 -28.5 -136t-63.5 -160q-157 0 -266.5 20t-245.5 84l-20 -39q-18 -27 -97.5 -45
t-195.5 -20zM997 1231q-96 -103 -139 -133q-88 60 -152 133q54 48 144 147q27 -36 73.5 -81t73.5 -66zM817 961q-54 -79 -144 -164q-97 74 -159 147q42 38 155 162q16 -17 148 -145zM1200 995q-54 -79 -144 -164q-94 72 -159 148q42 38 155 162q22 -24 148 -146z" />
    <glyph glyph-name="uni0634.medi" unicode="&#x634;" horiz-adv-x="1597" arabic-form="medial" 
d="M1618 -20q-93 0 -188.5 36.5t-153.5 96.5l-35 -68q-16 -27 -81 -46t-132 -19q-63 0 -108 16.5t-86 44.5q-22 -26 -96.5 -42t-192.5 -19q-68 0 -155 21t-140 52q-79 -73 -250 -73q-20 0 -20 20v143q0 21 20 21q67 0 111 12.5t84 42.5q31 25 50.5 49.5t78.5 124.5
q21 38 74 38q37 0 59 -17q-69 -165 -101 -221q82 -29 215 -29q114 0 189 24q16 27 58 167q29 101 54.5 153.5t49.5 65.5t50 13q33 0 56 -18q-37 -83 -95 -277l-30 -93q38 -19 66 -24t63 -5q58 0 133 25q17 28 69 173q50 144 83 201q23 38 74 38q37 0 59 -17
q-11 -25 -21.5 -53.5t-99.5 -288.5q57 -38 124.5 -61t164.5 -23q20 0 20 -21v-143q0 -20 -20 -20zM967 1231q-96 -103 -139 -133q-88 60 -152 133q54 48 144 147q27 -36 73.5 -81t73.5 -66zM787 961q-54 -79 -144 -164q-97 74 -159 147q42 38 155 162q16 -17 148 -145z
M1170 995q-54 -79 -144 -164q-94 72 -159 148q42 38 155 162q22 -24 148 -146z" />
    <glyph glyph-name="uni0634.fina" unicode="&#x634;" horiz-adv-x="2449" arabic-form="final" 
d="M2470 -20q-93 0 -188.5 36.5t-153.5 96.5l-35 -68q-16 -26 -80 -45.5t-133 -19.5q-63 0 -108 16.5t-86 44.5q-22 -26 -96.5 -42t-192.5 -19q-52 0 -113 12q6 -50 6 -98q0 -145 -92.5 -280t-256.5 -222.5t-341 -87.5q-206 0 -321 118.5t-115 333.5q0 75 8.5 131.5
t38.5 180.5l88 -21q-27 -103 -27 -172q0 -178 88.5 -275.5t245.5 -97.5q115 0 237.5 39t219.5 109t137 153q-158 346 -158 461q0 126 158 215q9 -84 53 -299q73 -16 170 -16q114 0 189 24q16 27 58 167q29 101 54.5 153.5t49.5 65.5t50 13q33 0 56 -18q-37 -83 -95 -277
l-30 -93q38 -19 66 -24t63 -5q58 0 133 25q17 28 69 173q43 123 66 169.5t44 58t47 11.5q37 0 59 -17q-11 -25 -21.5 -53.5t-99.5 -288.5q57 -38 124.5 -61t164.5 -23q20 0 20 -21v-143q0 -20 -20 -20zM1872 1231q-96 -103 -139 -133q-88 60 -152 133q54 48 144 147
q27 -36 73.5 -81t73.5 -66zM1692 961q-54 -79 -144 -164q-97 74 -159 147q42 38 155 162q16 -17 148 -145zM2075 995q-54 -79 -144 -164q-94 72 -159 148q42 38 155 162q22 -24 148 -146z" />
    <glyph glyph-name="uni0636" unicode="&#x636;" horiz-adv-x="2640" arabic-form="isolated" 
d="M600 -696q-206 0 -321 118.5t-115 333.5q0 75 8.5 131.5t38.5 180.5l88 -21q-27 -103 -27 -172q0 -178 88.5 -275.5t245.5 -97.5q115 0 237.5 39t219.5 109t137 153q-158 346 -158 461q0 126 158 215q17 -126 37 -225q12 -6 68 -27q222 299 422.5 456t363.5 157
q74 0 179 -61.5t176 -144.5t71 -145q0 -148 -94 -261t-284 -180.5t-398 -67.5q-98 0 -232.5 16.5t-230.5 44.5q12 -89 12 -147q0 -145 -92.5 -280t-256.5 -222.5t-341 -87.5zM2032 639q-115 0 -276 -113.5t-341 -326.5q168 -35 350 -35q168 0 325.5 52.5t317.5 152.5
q-68 123 -172.5 196.5t-203.5 73.5zM1866 1112q-51 -77 -156 -176q-107 83 -172 157q102 100 168 176q79 -86 160 -157z" />
    <glyph glyph-name="uni0636.init" unicode="&#x636;" horiz-adv-x="1894" arabic-form="initial" 
d="M414 464q35 0 57 -22l-72 -166q54 -26 119 -49q460 613 787 613q75 0 181 -63t175.5 -146t69.5 -142q0 -147 -93.5 -260t-283.5 -181t-400 -68q-181 0 -363 38.5t-286 98.5l-20 -26q-48 -60 -118 -85.5t-167 -25.5q-20 0 -20 20v143q0 21 20 21q84 0 136 21t89.5 62.5
t112.5 174.5q26 42 76 42zM1245 639q-114 0 -274.5 -112.5t-339.5 -327.5q159 -35 348 -35q315 0 643 205q-68 123 -172.5 196.5t-204.5 73.5zM1047 1112q-51 -77 -156 -176q-107 83 -172 157q102 100 168 176q79 -86 160 -157z" />
    <glyph glyph-name="uni0636.medi" unicode="&#x636;" horiz-adv-x="1874" arabic-form="medial" 
d="M1894 -20q-102 0 -202 40.5t-166 110.5q-105 -70 -261.5 -110.5t-310.5 -40.5q-181 0 -363 38.5t-286 98.5l-20 -26q-48 -60 -118 -85.5t-167 -25.5q-20 0 -20 20v143q0 21 20 21q84 0 136 21t89.5 62.5t112.5 174.5q26 42 76 42q35 0 57 -22l-72 -166q54 -26 119 -49
q460 613 787 613q75 0 181 -63t175.5 -146t69.5 -142q0 -150 -95 -260q111 -65 258 -65q21 0 21 -21v-143q0 -20 -21 -20zM1245 639q-114 0 -274.5 -112.5t-339.5 -327.5q159 -35 348 -35q315 0 643 205q-68 123 -172.5 196.5t-204.5 73.5zM1057 1112q-51 -77 -156 -176
q-107 83 -172 157q102 100 168 176q79 -86 160 -157z" />
    <glyph glyph-name="uni0636.fina" unicode="&#x636;" horiz-adv-x="2648" arabic-form="final" 
d="M600 -696q-206 0 -321 118.5t-115 333.5q0 75 8.5 131.5t38.5 180.5l88 -21q-27 -103 -27 -172q0 -178 88.5 -275.5t245.5 -97.5q115 0 237.5 39t219.5 109t137 153q-158 346 -158 461q0 126 158 215q17 -126 37 -225q12 -6 68 -27q222 299 422.5 456t363.5 157
q74 0 179 -61.5t176 -144.5t71 -145q0 -153 -96 -266q103 -59 248 -59q20 0 20 -21v-143q0 -20 -20 -20q-100 0 -198.5 38.5t-166.5 106.5q-102 -66 -254.5 -105.5t-308.5 -39.5q-98 0 -232.5 16.5t-230.5 44.5q12 -89 12 -147q0 -145 -92.5 -280t-256.5 -222.5t-341 -87.5z
M2032 639q-115 0 -276 -113.5t-341 -326.5q168 -35 350 -35q168 0 325.5 52.5t317.5 152.5q-68 123 -172.5 196.5t-203.5 73.5zM1866 1112q-51 -77 -156 -176q-107 83 -172 157q102 100 168 176q79 -86 160 -157z" />
    <glyph glyph-name="uni0638" unicode="&#x638;" horiz-adv-x="1853" arabic-form="isolated" 
d="M954 -20q-100 0 -279 8.5t-247 29.5q-52 15 -152 66.5t-174 103.5l25 84q272 -62 367 -75q60 81 137 174l-70 413q-44 236 -64.5 398.5t-20.5 222.5q0 81 37.5 128t121.5 64q23 -91 43 -151l43 -135l-64 -56q13 -187 50 -473q16 -170 22 -301q164 174 310.5 266.5
t265.5 92.5q75 0 181 -63t175.5 -146t69.5 -142q0 -147 -93.5 -260t-283.5 -181t-400 -68zM1245 639q-119 0 -284 -119t-347 -340q158 -16 365 -16q315 0 643 205q-68 123 -172.5 196.5t-204.5 73.5zM1208 1116q-51 -77 -156 -176q-107 83 -172 157q102 100 168 176
q79 -86 160 -157z" />
    <glyph glyph-name="uni0638.init" unicode="&#x638;" horiz-adv-x="1591" arabic-form="initial" 
d="M1468 518q0 -172 -159 -292t-482.5 -183t-826.5 -63q-20 0 -20 20v143q0 21 20 21h91l116 2q87 122 155 203l-71 415q-44 236 -64.5 398.5t-20.5 222.5q0 81 37.5 128t121.5 64q29 -115 63 -213l23 -73l-64 -56q9 -130 39 -385q19 -173 24 -235.5t9 -153.5
q170 187 320.5 287t262.5 100q74 0 178 -61t176 -144t72 -145zM983 668q-111 0 -282 -134t-361 -366q224 7 352 25q153 18 220 34t128 38t134.5 56t183.5 91q-72 123 -170 189.5t-205 66.5zM924 1116q-51 -77 -156 -176q-107 83 -172 157q102 100 168 176q79 -86 160 -157z
" />
    <glyph glyph-name="uni0638.medi" unicode="&#x638;" horiz-adv-x="1516" arabic-form="medial" 
d="M1536 -20q-108 0 -211.5 43.5t-165.5 115.5q-367 -159 -1159 -159q-20 0 -20 20v143q0 21 20 21h91l116 2q87 122 155 203l-71 415q-44 236 -64.5 398.5t-20.5 222.5q0 81 37.5 128t121.5 64q29 -115 63 -213l23 -73l-64 -56q9 -130 39 -385q19 -173 24 -235.5t9 -153.5
q170 187 320.5 287t262.5 100q74 0 178 -61t176 -144t72 -145q0 -178 -170 -301q102 -53 238 -53q20 0 20 -21v-143q0 -20 -20 -20zM983 668q-111 0 -282 -134t-361 -366q224 7 352 25q153 18 220 34t128 38t134.5 56t183.5 91q-72 123 -170 189.5t-205 66.5zM922 1116
q-51 -77 -156 -176q-107 83 -172 157q102 100 168 176q79 -86 160 -157z" />
    <glyph glyph-name="uni0638.fina" unicode="&#x638;" horiz-adv-x="1868" arabic-form="final" 
d="M954 -20q-100 0 -279 8.5t-247 29.5q-52 15 -152 66.5t-174 103.5l25 84q272 -62 367 -75q60 81 137 174l-70 413q-44 236 -64.5 398.5t-20.5 222.5q0 81 37.5 128t121.5 64q23 -91 43 -151l43 -135l-64 -56q13 -187 50 -473q16 -170 22 -301q164 174 310.5 266.5
t265.5 92.5q75 0 181 -63t175.5 -146t69.5 -142q0 -152 -95 -262q111 -63 252 -63q21 0 21 -21v-143q0 -20 -21 -20q-99 0 -199.5 40t-166.5 109q-110 -71 -262 -110t-306 -39zM1245 639q-119 0 -284 -119t-347 -340q158 -16 365 -16q315 0 643 205q-68 123 -172.5 196.5
t-204.5 73.5zM1208 1116q-51 -77 -156 -176q-107 83 -172 157q102 100 168 176q79 -86 160 -157z" />
    <glyph glyph-name="uni063A" unicode="&#x63a;" horiz-adv-x="1438" arabic-form="isolated" 
d="M897 -696q-295 0 -461 163.5t-166 452.5q0 294 222 526q-138 31 -233 131t-95 218q0 106 58 220t145.5 180.5t181.5 66.5q82 0 156 -39.5t182 -132.5l-43 -76q-96 36 -138.5 45.5t-95.5 9.5q-147 0 -309 -88q0 -148 109.5 -245.5t300.5 -112.5q181 111 397 176
q27 -34 27 -76q0 -38 -19 -66.5t-50.5 -50.5t-115.5 -57q-189 -75 -325.5 -175t-202.5 -215t-66 -239q0 -125 65 -218t197 -146.5t285 -53.5q287 0 590 68l27 -82q-184 -101 -334 -142.5t-289 -41.5zM666 1575q-51 -77 -156 -176q-107 83 -172 157q102 100 168 176
q79 -86 160 -157z" />
    <glyph glyph-name="uni063A.init" unicode="&#x63a;" horiz-adv-x="1217" arabic-form="initial" 
d="M0 -20q-20 0 -20 20v143q0 21 20 21q167 0 299 6q-65 46 -104 108.5t-39 135.5q0 106 58 220t145.5 180.5t181.5 66.5q82 0 156 -39.5t182 -132.5l-43 -76q-96 36 -138.5 45.5t-95.5 9.5q-149 0 -309 -88q0 -103 49.5 -187.5t143 -136t225.5 -61.5q169 33 411 131
q33 -30 33 -86l-2 -25q-15 -80 -100 -102q-297 -73 -440.5 -98.5t-292.5 -40t-320 -14.5zM505 1168q-51 -77 -156 -176q-107 83 -172 157q102 100 168 176q79 -86 160 -157z" />
    <glyph glyph-name="uni063A.medi" unicode="&#x63a;" horiz-adv-x="997" arabic-form="medial" 
d="M1014 -20q-156 0 -273.5 30t-212.5 101q-132 -72 -256.5 -101.5t-269.5 -29.5q-22 0 -22 22v139q0 23 22 23q266 0 414 57q-35 41 -64.5 83.5l-59.5 83.5t-63.5 80t-74.5 73l-37 -25q-45 49 -45 108q0 83 82 138.5t185 87t204 31.5q155 0 258.5 -86t103.5 -215
q0 -99 -55 -195.5t-162 -177.5q103 -43 326 -43q24 0 24 -23v-139q0 -22 -24 -22zM551 682q-149 0 -283 -72q78 -64 158 -160q97 -119 131 -153q81 53 128.5 113.5t47.5 117.5q0 67 -50.5 110.5t-131.5 43.5zM647 1215q-51 -77 -156 -176q-107 83 -172 157q102 100 168 176
q79 -86 160 -157z" />
    <glyph glyph-name="uni063A.fina" unicode="&#x63a;" horiz-adv-x="1090" arabic-form="final" 
d="M1106 -20q-166 0 -286.5 33t-209.5 106q-262 -176 -262 -416q0 -177 142 -288t370 -111q126 0 218 12.5t249 48.5l27 -82q-162 -89 -231 -117.5t-135.5 -44.5t-133.5 -16q-166 0 -301.5 76.5t-213 214t-77.5 303.5q0 145 68.5 275.5t191.5 228.5q-38 43 -69.5 87.5
l-63 88.5t-66 85t-77.5 77l-37 -25q-45 49 -45 108q0 85 86 141t184.5 86t200.5 30q155 0 258.5 -86t103.5 -215q0 -209 -233 -367q107 -49 342 -49q24 0 24 -23v-139q0 -22 -24 -22zM643 682q-80 0 -146.5 -17.5t-136.5 -54.5q51 -41 89 -81.5t71 -80.5l64 -79t69 -76
q172 126 172 235q0 67 -50.5 110.5t-131.5 43.5zM719 1215q-51 -77 -156 -176q-107 83 -172 157q102 100 168 176q79 -86 160 -157z" />
    <glyph glyph-name="uni06A9.init" unicode="&#x6a9;" horiz-adv-x="999" arabic-form="initial" 
d="M0 -20q-20 0 -20 20v143q0 21 20 21q220 0 393 32.5t318 108.5q-90 274 -506 473q-22 -8 -58 -8q-62 0 -104.5 44t-42.5 112q0 45 24.5 134t38.5 97q282 147 449.5 224.5t407.5 174.5q19 -16 28 -42t9 -49l-2 -21q-12 -85 -101 -121q-425 -174 -766 -330
q184 -45 352.5 -149.5t267.5 -231.5t99 -237q0 -194 -201 -294.5t-606 -100.5z" />
    <glyph glyph-name="uni06A9.medi" unicode="&#x6a9;" horiz-adv-x="1106" arabic-form="medial" 
d="M379 252q-34 164 -133 295q-107 127 -175.5 247t-68.5 185q0 63 23 103.5t81 72.5q142 79 289.5 147t603.5 254q19 -16 28.5 -42t9.5 -49l-2 -21q-12 -85 -101 -121l-232 -94q-404 -164 -614 -258q190 -232 319 -365.5t263 -245t240.5 -154t215.5 -42.5q21 0 21 -21v-143
q0 -20 -21 -20q-136 0 -244 38t-219 126.5t-192 164.5q0 -101 -57 -196q-110 -65 -207.5 -99t-206.5 -34q-20 0 -20 20v143q0 21 20 21q87 0 190.5 23.5t188.5 64.5z" />
    <glyph glyph-name="uni0641" unicode="&#x641;" horiz-adv-x="2044" arabic-form="isolated" 
d="M772 -20q-608 0 -608 411q0 158 33 264h86q-9 -67 -9 -118q0 -147 57.5 -224.5t181.5 -113t310 -35.5q239 0 529.5 48t453.5 122q-14 114 -32 188q-169 -131 -342 -131q-105 0 -172.5 78t-67.5 203q0 119 41 228.5t110 174t148 64.5q121 0 218 -87.5t154.5 -252
t57.5 -359.5q0 -77 -84 -245q-159 -100 -452 -157.5t-613 -57.5zM1489 573q119 0 254 60q-105 301 -289 301q-72 0 -121 -66t-49 -149q0 -76 49.5 -111t155.5 -35zM1604 1481q-51 -77 -156 -176q-107 83 -172 157q102 100 168 176q79 -86 160 -157z" />
    <glyph glyph-name="uni0641.init" unicode="&#x641;" horiz-adv-x="1012" arabic-form="initial" 
d="M774 293q-13 106 -33 188q-169 -131 -342 -131q-105 0 -172 78.5t-67 202.5q0 119 41 228.5t110 174t148 64.5q123 0 219.5 -89t153.5 -252t57 -358q0 -77 -84 -245q-146 -91 -328 -132.5t-475 -41.5q-22 0 -22 22v139q0 23 22 23q267 0 446 32t326 97zM457 532
q119 0 254 60q-105 301 -289 301q-72 0 -121 -66t-49 -149q0 -75 49 -110.5t156 -35.5zM529 1440q-51 -77 -156 -176q-107 83 -172 157q102 100 168 176q79 -86 160 -157z" />
    <glyph glyph-name="uni0641.medi" unicode="&#x641;" horiz-adv-x="932" arabic-form="medial" 
d="M209 172q-88 99 -88 207q0 61 13.5 141.5t29.5 110.5q68 120 169 185t212 65q63 0 121.5 -62.5t94.5 -164.5t36 -205q0 -155 -103 -273q90 -12 258 -12q21 0 21 -21v-143q0 -20 -21 -20q-308 0 -493 77q-86 -41 -191 -59t-266 -18q-22 0 -22 22v139q0 23 22 23
q139 0 207 8zM211 401q100 -117 248 -174q137 54 243 148q-6 61 -39 133t-74 120t-67 48q-69 0 -163 -83t-148 -192zM570 1223q-51 -77 -156 -176q-107 83 -172 157q102 100 168 176q79 -86 160 -157z" />
    <glyph glyph-name="uni0641.fina" unicode="&#x641;" horiz-adv-x="1970" arabic-form="final" 
d="M1991 -20q-299 0 -496 96q-128 -46 -314.5 -71t-408.5 -25q-608 0 -608 411q0 158 33 264h86q-9 -67 -9 -118q0 -147 57.5 -224.5t181.5 -113t310 -35.5q229 0 432 41q-96 103 -96 215q0 48 13 134t30 118q68 120 169 185t212 65q63 0 121.5 -62t94.5 -165t36 -206
q0 -174 -139 -299q126 -26 295 -26q20 0 20 -21v-143q0 -20 -20 -20zM1249 442q92 -109 224 -176q162 59 268 150q-6 61 -39 133t-74 120t-67 48q-68 0 -162.5 -82t-149.5 -193zM1653 1272q-51 -77 -156 -176q-107 83 -172 157q102 100 168 176q79 -86 160 -157z" />
    <glyph glyph-name="veh.isol" unicode="&#x6a4;" horiz-adv-x="2044" arabic-form="isolated" 
d="M772 -20q-608 0 -608 411q0 158 33 264h86q-9 -67 -9 -118q0 -147 57.5 -224.5t181.5 -113t310 -35.5q239 0 529.5 48t453.5 122q-14 114 -32 188q-169 -131 -342 -131q-105 0 -172.5 78t-67.5 203q0 119 41 228.5t110 174t148 64.5q121 0 218 -87.5t154.5 -252
t57.5 -359.5q0 -77 -84 -245q-159 -100 -452 -157.5t-613 -57.5zM1489 573q119 0 254 60q-105 301 -289 301q-72 0 -121 -66t-49 -149q0 -76 49.5 -111t155.5 -35zM1581 1753q-96 -103 -139 -133q-88 60 -152 133q54 48 144 147q27 -36 73.5 -81t73.5 -66zM1401 1483
q-54 -79 -144 -164q-97 74 -159 147q42 38 155 162q16 -17 148 -145zM1784 1517q-54 -79 -144 -164q-94 72 -159 148q42 38 155 162q22 -24 148 -146z" />
    <glyph glyph-name="veh.init" unicode="&#x6a4;" horiz-adv-x="1012" arabic-form="initial" 
d="M774 293q-13 106 -33 188q-169 -131 -342 -131q-105 0 -172 78.5t-67 202.5q0 119 41 228.5t110 174t148 64.5q123 0 219.5 -89t153.5 -252t57 -358q0 -77 -84 -245q-146 -91 -328 -132.5t-475 -41.5q-22 0 -22 22v139q0 23 22 23q267 0 446 32t326 97zM457 532
q119 0 254 60q-105 301 -289 301q-72 0 -121 -66t-49 -149q0 -75 49 -110.5t156 -35.5zM531 1645q-96 -103 -139 -133q-88 60 -152 133q54 48 144 147q27 -36 73.5 -81t73.5 -66zM351 1375q-54 -79 -144 -164q-97 74 -159 147q42 38 155 162q16 -17 148 -145zM734 1409
q-54 -79 -144 -164q-94 72 -159 148q42 38 155 162q22 -24 148 -146z" />
    <glyph glyph-name="veh.medi" unicode="&#x6a4;" horiz-adv-x="932" arabic-form="medial" 
d="M209 172q-88 99 -88 207q0 61 13.5 141.5t29.5 110.5q68 120 169 185t212 65q63 0 121.5 -62.5t94.5 -164.5t36 -205q0 -155 -103 -273q90 -12 258 -12q21 0 21 -21v-143q0 -20 -21 -20q-308 0 -493 77q-86 -41 -191 -59t-266 -18q-22 0 -22 22v139q0 23 22 23
q139 0 207 8zM211 401q100 -117 248 -174q137 54 243 148q-6 61 -39 133t-74 120t-67 48q-69 0 -163 -83t-148 -192zM589 1444q-96 -103 -139 -133q-88 60 -152 133q54 48 144 147q27 -36 73.5 -81t73.5 -66zM409 1174q-54 -79 -144 -164q-97 74 -159 147q42 38 155 162
q16 -17 148 -145zM792 1208q-54 -79 -144 -164q-94 72 -159 148q42 38 155 162q22 -24 148 -146z" />
    <glyph glyph-name="veh.fina" unicode="&#x6a4;" horiz-adv-x="1970" arabic-form="final" 
d="M1991 -20q-299 0 -496 96q-128 -46 -314.5 -71t-408.5 -25q-608 0 -608 411q0 158 33 264h86q-9 -67 -9 -118q0 -147 57.5 -224.5t181.5 -113t310 -35.5q229 0 432 41q-96 103 -96 215q0 48 13 134t30 118q68 120 169 185t212 65q63 0 121.5 -62t94.5 -165t36 -206
q0 -174 -139 -299q126 -26 295 -26q20 0 20 -21v-143q0 -20 -20 -20zM1249 442q92 -109 224 -176q162 59 268 150q-6 61 -39 133t-74 120t-67 48q-68 0 -162.5 -82t-149.5 -193zM1647 1469q-96 -103 -139 -133q-88 60 -152 133q54 48 144 147q27 -36 73.5 -81t73.5 -66z
M1467 1199q-54 -79 -144 -164q-97 74 -159 147q42 38 155 162q16 -17 148 -145zM1850 1233q-54 -79 -144 -164q-94 72 -159 148q42 38 155 162q22 -24 148 -146z" />
    <glyph glyph-name="uni0642.init" unicode="&#x642;" horiz-adv-x="1012" arabic-form="initial" 
d="M774 293q-13 106 -33 188q-169 -131 -342 -131q-105 0 -172 78.5t-67 202.5q0 119 41 228.5t110 174t148 64.5q123 0 219.5 -89t153.5 -252t57 -358q0 -77 -84 -245q-146 -91 -328 -132.5t-475 -41.5q-22 0 -22 22v139q0 23 22 23q267 0 446 32t326 97zM457 532
q119 0 254 60q-105 301 -289 301q-72 0 -121 -66t-49 -149q0 -75 49 -110.5t156 -35.5zM359 1377q-55 -81 -143 -164q-99 76 -160 147q47 43 156 162q21 -23 147 -145zM722 1411q-54 -79 -144 -164q-94 72 -159 148q42 38 155 162q22 -24 148 -146z" />
    <glyph glyph-name="uni0642.medi" unicode="&#x642;" horiz-adv-x="932" arabic-form="medial" 
d="M209 172q-88 99 -88 207q0 61 13.5 141.5t29.5 110.5q68 120 169 185t212 65q63 0 121.5 -62.5t94.5 -164.5t36 -205q0 -155 -103 -273q90 -12 258 -12q21 0 21 -21v-143q0 -20 -21 -20q-308 0 -493 77q-86 -41 -191 -59t-266 -18q-22 0 -22 22v139q0 23 22 23
q139 0 207 8zM211 401q100 -117 248 -174q137 54 243 148q-6 61 -39 133t-74 120t-67 48q-69 0 -163 -83t-148 -192zM410 1174q-55 -81 -143 -164q-99 76 -160 147q47 43 156 162q21 -23 147 -145zM773 1208q-54 -79 -144 -164q-94 72 -159 148q42 38 155 162
q22 -24 148 -146z" />
    <glyph glyph-name="uni0642" unicode="&#x642;" horiz-adv-x="1559" arabic-form="isolated" 
d="M1313 -188q0 170 -29 311q-85 -79 -164.5 -111t-163.5 -32q-136 0 -218.5 84t-82.5 227q0 123 48.5 241.5t129 192.5t162.5 74q115 0 218 -100t163 -276.5t60 -389.5q0 -151 -61.5 -282.5t-174 -229.5t-264.5 -157.5t-295 -59.5q-225 0 -351 118.5t-126 333.5
q0 75 8.5 131.5t38.5 180.5l88 -21q-27 -103 -27 -172q0 -181 97 -277t278 -96q125 0 263.5 40.5t242.5 110.5t160 159zM1014 176q127 0 243 55q-32 111 -79.5 192t-106 126t-113.5 45q-48 0 -96.5 -36t-81 -94t-32.5 -106q0 -88 69.5 -135t196.5 -47zM844 1125
q-55 -81 -143 -164q-99 76 -160 147q47 43 156 162q21 -23 147 -145zM1207 1159q-54 -79 -144 -164q-94 72 -159 148q42 38 155 162q22 -24 148 -146z" />
    <glyph glyph-name="uni0642.fina" unicode="&#x642;" horiz-adv-x="1546" arabic-form="final" 
d="M995 819q100 0 194.5 -86t158.5 -237.5t82 -331.5l51 -1l86 1q20 0 20 -21v-143q0 -20 -20 -20h-133q-13 -183 -119 -334.5t-295 -246.5t-379 -95q-225 0 -351 118.5t-126 333.5q0 75 8.5 131.5t38.5 180.5l88 -21q-27 -103 -27 -172q0 -181 97 -277t278 -96
q213 0 392.5 83.5t273.5 226.5l-10 170q-309 10 -424.5 43t-169.5 103t-54 183q0 123 48.5 241.5t129 192.5t162.5 74zM1274 166q-30 137 -79.5 238t-111.5 155.5t-125 54.5q-48 0 -97 -36.5t-81 -93.5t-32 -105q0 -76 59 -122t203 -73q59 -13 264 -18zM905 1135
q-55 -81 -143 -164q-99 76 -160 147q47 43 156 162q21 -23 147 -145zM1268 1169q-54 -79 -144 -164q-94 72 -159 148q42 38 155 162q22 -24 148 -146z" />
    <glyph glyph-name="uni0646.init" unicode="&#x646;" horiz-adv-x="664" arabic-form="initial" 
d="M0 -20q-20 0 -20 20v143q0 21 20 21q107 0 223 23.5t203 64.5q-29 107 -87 264q-46 124 -46 162q0 55 44 110t114 93q10 -70 25.5 -139.5l30 -136.5t24.5 -129.5t10 -117.5q0 -77 -84 -245q-223 -133 -457 -133zM435 1196q-51 -77 -156 -176q-107 83 -172 157
q102 100 168 176q79 -86 160 -157z" />
    <glyph glyph-name="uni0646.medi" unicode="&#x646;" horiz-adv-x="705" arabic-form="medial" 
d="M0 -20q-20 0 -20 20v143q0 21 20 21q103 0 169 22t100 65t94 160l43 78q20 39 73 39q36 0 60 -18q-67 -162 -117 -256q142 -90 303 -90q20 0 20 -21v-143q0 -20 -20 -20q-224 0 -381 141l-19 -28l-20 -25q-15 -18 -64 -40t-112 -35t-129 -13zM480 882q-51 -77 -156 -176
q-107 83 -172 157q102 100 168 176q79 -86 160 -157z" />
    <glyph glyph-name="uni0646" unicode="&#x646;" horiz-adv-x="1413" arabic-form="isolated" 
d="M600 -696q-206 0 -321 118.5t-115 333.5q0 75 8.5 131.5t38.5 180.5l88 -21q-27 -103 -27 -172q0 -178 88.5 -275.5t245.5 -97.5q115 0 237.5 39t219.5 109t137 153q-158 346 -158 461q0 126 158 215q11 -85 26.5 -162.5l29.5 -149.5t24 -139.5t10 -133.5
q0 -145 -92.5 -280t-256.5 -222.5t-341 -87.5zM807 513q-51 -77 -156 -176q-107 83 -172 157q102 100 168 176q79 -86 160 -157z" />
    <glyph glyph-name="uni0646.fina" unicode="&#x646;" horiz-adv-x="1411" arabic-form="final" 
d="M1432 -20q-82 0 -150 32q8 -77 8 -118q0 -145 -92.5 -280t-256.5 -222.5t-341 -87.5q-206 0 -321 118.5t-115 333.5q0 75 8.5 131.5t38.5 180.5l88 -21q-27 -103 -27 -172q0 -178 88.5 -275.5t245.5 -97.5q115 0 237.5 39t219.5 109t137 153q-158 346 -158 461
q0 126 158 215q8 -64 47 -270q50 -28 93.5 -36.5t91.5 -8.5q20 0 20 -21v-143q0 -20 -20 -20zM807 513q-51 -77 -156 -176q-107 83 -172 157q102 100 168 176q79 -86 160 -157z" />
    <glyph glyph-name="uni06C0" unicode="&#x6c0;" horiz-adv-x="983" arabic-form="isolated" 
d="M164 283q0 233 235 458l-10 9q-48 32 -48 99q0 38 18.5 70.5t46.5 43.5q110 -36 215.5 -130.5t172 -214t66.5 -215.5q0 -71 -55.5 -196t-108.5 -160q-99 -67 -237 -67q-139 0 -217 82t-78 221zM741 279q-49 234 -272 411q-88 -83 -141.5 -173.5t-53.5 -162.5
q0 -87 55 -134.5t156 -47.5q58 0 131.5 30.5t124.5 76.5zM438 1430l2 12q0 13 -11 26t-28 13q-41 0 -82 -32t-59 -83q47 -60 146 -60q53 0 147 20l-7 -117q-133 -36 -207.5 -66.5t-166.5 -79.5l-6 117q27 19 58 35t60 33q-110 20 -110 121q0 55 32 110.5t86.5 92t104.5 36.5
q57 0 88 -28.5t31 -83.5q0 -17 -6.5 -42t-14.5 -40z" />
    <glyph glyph-name="uni06C0.fina" unicode="&#x6c0;" horiz-adv-x="1090" arabic-form="final" 
d="M672 121q-124 10 -193 26t-150 55t-123 75.5t-42 66.5q0 31 31.5 106.5t54.5 116.5q35 65 152.5 150t261.5 145l-13 101q48 46 91.5 75l91.5 60q9 -411 21 -719l5 -154q109 -61 250 -61q20 0 20 -21v-143q0 -20 -20 -20q-146 0 -236 54.5t-106 155.5l-14 86zM748 317
l-62 390q-286 -102 -405 -252q62 -48 117 -75.5t144 -43.5t206 -19zM592 1448l2 12q0 13 -11 26t-28 13q-41 0 -82 -32t-59 -83q47 -60 146 -60q53 0 147 20l-7 -117q-133 -36 -207.5 -66.5t-166.5 -79.5l-6 117q27 19 58 35t60 33q-110 20 -110 121q0 55 32 110.5t86.5 92
t104.5 36.5q57 0 88 -28.5t31 -83.5q0 -17 -6.5 -42t-14.5 -40z" />
    <glyph glyph-name="uni0624" unicode="&#x624;" horiz-adv-x="1128" arabic-form="isolated" 
d="M465 -512q-80 0 -197 48.5t-186 105.5l35 79q132 -45 293 -45q179 0 308 106.5t197 315.5l-2 10v9q-142 -137 -323 -137q-138 0 -219.5 84.5t-81.5 226.5q0 123 48.5 241.5t129 192.5t162.5 74q99 0 186 -90.5t139 -241t52 -293.5q0 -172 -76.5 -336.5t-199 -257
t-265.5 -92.5zM647 176q69 0 122 12t122 43q-42 160 -126.5 261.5t-172.5 101.5q-49 0 -97.5 -36t-81 -94.5t-32.5 -105.5q0 -88 69.5 -135t196.5 -47zM522 1241l2 12q0 13 -11 26t-28 13q-41 0 -82 -32t-59 -83q47 -60 146 -60q53 0 147 20l-7 -117q-133 -36 -207.5 -66.5
t-166.5 -79.5l-6 117q27 19 58 35t60 33q-110 20 -110 121q0 55 32 110.5t86.5 92t104.5 36.5q57 0 88 -28.5t31 -83.5q0 -17 -6.5 -42t-14.5 -40z" />
    <glyph glyph-name="uni0624.fina" unicode="&#x624;" horiz-adv-x="1128" arabic-form="final" 
d="M465 -512q-80 0 -197 48.5t-186 105.5l35 79q132 -45 293 -45q311 0 458 308q-258 11 -367 44t-160.5 103t-51.5 180q0 123 48.5 241.5t129 192.5t162.5 74q98 0 183.5 -87t139.5 -243t54 -315v-10h143q20 0 20 -21v-143q0 -20 -20 -20h-82l-86 2q-37 -142 -114.5 -256
t-181.5 -176t-220 -62zM907 166q-20 123 -69 227.5t-114 162.5t-132 58q-49 0 -98 -36.5t-81 -93.5t-32 -105q0 -76 59 -122t203 -73q65 -13 264 -18zM524 1239l2 12q0 13 -11 26t-28 13q-41 0 -82 -32t-59 -83q47 -60 146 -60q53 0 147 20l-7 -117q-133 -36 -207.5 -66.5
t-166.5 -79.5l-6 117q27 19 58 35t60 33q-110 20 -110 121q0 55 32 110.5t86.5 92t104.5 36.5q57 0 88 -28.5t31 -83.5q0 -17 -6.5 -42t-14.5 -40z" />
    <glyph glyph-name="uni0649.init" unicode="&#x649;" horiz-adv-x="664" arabic-form="initial" 
d="M0 -20q-20 0 -20 20v143q0 21 20 21q107 0 223 23.5t203 64.5q-29 107 -87 264q-46 124 -46 162q0 55 44 110t114 93q10 -70 25.5 -139.5l30 -136.5t24.5 -129.5t10 -117.5q0 -77 -84 -245q-223 -133 -457 -133z" />
    <glyph glyph-name="uni0649.medi" unicode="&#x649;" horiz-adv-x="705" arabic-form="medial" 
d="M0 -20q-20 0 -20 20v143q0 21 20 21q103 0 169 22t100 65t94 160l43 78q20 39 73 39q36 0 60 -18q-67 -162 -117 -256q142 -90 303 -90q20 0 20 -21v-143q0 -20 -20 -20q-224 0 -381 141l-19 -28l-20 -25q-15 -18 -64 -40t-112 -35t-129 -13z" />
    <glyph glyph-name="uni064A.init" unicode="&#x64a;" horiz-adv-x="827" arabic-form="initial" 
d="M0 -20q-20 0 -20 20v143q0 21 20 21q85 0 206.5 9t221.5 29.5t162 49.5q-29 107 -87 264q-46 124 -46 162q0 55 44.5 110t112.5 93q11 -70 26.5 -139.5l30 -136.5t24.5 -129.5t10 -117.5q0 -77 -84 -245q-102 -62 -276.5 -97.5t-344.5 -35.5zM304 -328q-55 -81 -143 -164
q-99 76 -160 147q47 43 156 162q21 -23 147 -145zM667 -294q-54 -79 -144 -164q-94 72 -159 148q42 38 155 162q22 -24 148 -146z" />
    <glyph glyph-name="uni064A.medi" unicode="&#x64a;" horiz-adv-x="868" arabic-form="medial" 
d="M643 528q35 0 59 -18q-70 -170 -116 -256q142 -90 303 -90q20 0 20 -21v-143q0 -20 -20 -20q-224 0 -381 141l-19 -28l-20 -25q-15 -16 -91 -37.5t-175.5 -36t-202.5 -14.5q-20 0 -20 20v143q0 21 20 21q320 0 399 55q26 17 56.5 64.5t71.5 127.5l42 78q22 39 74 39z
M433 -328q-55 -81 -143 -164q-99 76 -160 147q47 43 156 162q21 -23 147 -145zM796 -294q-54 -79 -144 -164q-94 72 -159 148q42 38 155 162q22 -24 148 -146z" />
    </font>
</defs>
</svg>
